  0
SECTION
  2
HEADER
  9
$ACADVER
  1
AC1015
  9
$ACADMAINTVER
 70
     6
  9
$DWGCODEPAGE
  3
ANSI_932
  9
$INSBASE
 10
0.0
 20
0.0
 30
0.0
  9
$EXTMIN
 10
0.0
 20
-0.0000000000002274
 30
-0.00000001
  9
$EXTMAX
 10
1649.12
 20
1143.08
 30
0.00000001
  9
$LIMMIN
 10
0.0
 20
0.0
  9
$LIMMAX
 10
1649.12
 20
1143.08
  9
$ORTHOMODE
 70
     0
  9
$REGENMODE
 70
     1
  9
$FILLMODE
 70
     1
  9
$QTEXTMODE
 70
     0
  9
$MIRRTEXT
 70
     0
  9
$LTSCALE
 40
10.0
  9
$ATTMODE
 70
     1
  9
$TEXTSIZE
 40
4.5
  9
$TRACEWID
 40
1.0
  9
$TEXTSTYLE
  7
表題
  9
$CLAYER
  8
AM_5
  9
$CELTYPE
  6
ByLayer
  9
$CECOLOR
 62
   256
  9
$CELTSCALE
 40
1.0
  9
$DISPSILH
 70
     0
  9
$DIMSCALE
 40
1.0
  9
$DIMASZ
 40
4.0
  9
$DIMEXO
 40
2.0
  9
$DIMDLI
 40
21.0
  9
$DIMRND
 40
0.0
  9
$DIMDLE
 40
0.0
  9
$DIMEXE
 40
2.0
  9
$DIMTP
 40
0.0
  9
$DIMTM
 40
0.000000001
  9
$DIMTXT
 40
7.0
  9
$DIMCEN
 40
0.09
  9
$DIMTSZ
 40
0.0
  9
$DIMTOL
 70
     0
  9
$DIMLIM
 70
     0
  9
$DIMTIH
 70
     0
  9
$DIMTOH
 70
     0
  9
$DIMSE1
 70
     0
  9
$DIMSE2
 70
     0
  9
$DIMTAD
 70
     1
  9
$DIMZIN
 70
     8
  9
$DIMBLK
  1
Open30
  9
$DIMASO
 70
     1
  9
$DIMSHO
 70
     1
  9
$DIMPOST
  1

  9
$DIMAPOST
  1

  9
$DIMALT
 70
     0
  9
$DIMALTD
 70
     3
  9
$DIMALTF
 40
25.4
  9
$DIMLFAC
 40
1.0
  9
$DIMTOFL
 70
     1
  9
$DIMTVP
 40
0.0
  9
$DIMTIX
 70
     0
  9
$DIMSOXD
 70
     0
  9
$DIMSAH
 70
     0
  9
$DIMBLK1
  1

  9
$DIMBLK2
  1

  9
$DIMSTYLE
  2
スタイル2
  9
$DIMCLRD
 70
     2
  9
$DIMCLRE
 70
     2
  9
$DIMCLRT
 70
     0
  9
$DIMTFAC
 40
1.0
  9
$DIMGAP
 40
1.0
  9
$DIMJUST
 70
     0
  9
$DIMSD1
 70
     0
  9
$DIMSD2
 70
     0
  9
$DIMTOLJ
 70
     1
  9
$DIMTZIN
 70
     0
  9
$DIMALTZ
 70
     0
  9
$DIMALTTZ
 70
     0
  9
$DIMUPT
 70
     0
  9
$DIMDEC
 70
     2
  9
$DIMTDEC
 70
     2
  9
$DIMALTU
 70
     2
  9
$DIMALTTD
 70
     3
  9
$DIMTXSTY
  7
スタイル１
  9
$DIMAUNIT
 70
     0
  9
$DIMADEC
 70
     0
  9
$DIMALTRND
 40
0.0
  9
$DIMAZIN
 70
     0
  9
$DIMDSEP
 70
    46
  9
$DIMATFIT
 70
     0
  9
$DIMFRAC
 70
     0
  9
$DIMLDRBLK
  1
Open30
  9
$DIMLUNIT
 70
     2
  9
$DIMLWD
 70
    -2
  9
$DIMLWE
 70
    -2
  9
$DIMTMOVE
 70
     0
  9
$LUNITS
 70
     2
  9
$LUPREC
 70
     4
  9
$SKETCHINC
 40
1.0
  9
$FILLETRAD
 40
10.0
  9
$AUNITS
 70
     0
  9
$AUPREC
 70
     0
  9
$MENU
  1
.
  9
$ELEVATION
 40
0.0
  9
$PELEVATION
 40
0.0
  9
$THICKNESS
 40
0.0
  9
$LIMCHECK
 70
     0
  9
$CHAMFERA
 40
10.0
  9
$CHAMFERB
 40
10.0
  9
$CHAMFERC
 40
20.0
  9
$CHAMFERD
 40
0.0
  9
$SKPOLY
 70
     0
  9
$TDCREATE
 40
2452325.282036805
  9
$TDUCREATE
 40
2452325.240370139
  9
$TDUPDATE
 40
2452717.650938194
  9
$TDUUPDATE
 40
2452717.609271528
  9
$TDINDWG
 40
2.1335746528
  9
$TDUSRTIMER
 40
2.1335746528
  9
$USRTIMER
 70
     1
  9
$ANGBASE
 50
0.0
  9
$ANGDIR
 70
     0
  9
$PDMODE
 70
     0
  9
$PDSIZE
 40
0.0
  9
$PLINEWID
 40
5.0
  9
$SPLFRAME
 70
     0
  9
$SPLINETYPE
 70
     6
  9
$SPLINESEGS
 70
     8
  9
$HANDSEED
  5
290
  9
$SURFTAB1
 70
     6
  9
$SURFTAB2
 70
     6
  9
$SURFTYPE
 70
     6
  9
$SURFU
 70
     6
  9
$SURFV
 70
     6
  9
$UCSBASE
  2

  9
$UCSNAME
  2

  9
$UCSORG
 10
0.0
 20
0.0
 30
0.0
  9
$UCSXDIR
 10
1.0
 20
0.0
 30
0.0
  9
$UCSYDIR
 10
0.0
 20
1.0
 30
0.0
  9
$UCSORTHOREF
  2

  9
$UCSORTHOVIEW
 70
     0
  9
$UCSORGTOP
 10
0.0
 20
0.0
 30
0.0
  9
$UCSORGBOTTOM
 10
0.0
 20
0.0
 30
0.0
  9
$UCSORGLEFT
 10
0.0
 20
0.0
 30
0.0
  9
$UCSORGRIGHT
 10
0.0
 20
0.0
 30
0.0
  9
$UCSORGFRONT
 10
0.0
 20
0.0
 30
0.0
  9
$UCSORGBACK
 10
0.0
 20
0.0
 30
0.0
  9
$PUCSBASE
  2

  9
$PUCSNAME
  2

  9
$PUCSORG
 10
0.0
 20
0.0
 30
0.0
  9
$PUCSXDIR
 10
1.0
 20
0.0
 30
0.0
  9
$PUCSYDIR
 10
0.0
 20
1.0
 30
0.0
  9
$PUCSORTHOREF
  2

  9
$PUCSORTHOVIEW
 70
     0
  9
$PUCSORGTOP
 10
0.0
 20
0.0
 30
0.0
  9
$PUCSORGBOTTOM
 10
0.0
 20
0.0
 30
0.0
  9
$PUCSORGLEFT
 10
0.0
 20
0.0
 30
0.0
  9
$PUCSORGRIGHT
 10
0.0
 20
0.0
 30
0.0
  9
$PUCSORGFRONT
 10
0.0
 20
0.0
 30
0.0
  9
$PUCSORGBACK
 10
0.0
 20
0.0
 30
0.0
  9
$USERI1
 70
     0
  9
$USERI2
 70
     0
  9
$USERI3
 70
     0
  9
$USERI4
 70
     0
  9
$USERI5
 70
     0
  9
$USERR1
 40
0.0
  9
$USERR2
 40
0.0
  9
$USERR3
 40
0.0
  9
$USERR4
 40
0.0
  9
$USERR5
 40
0.0
  9
$WORLDVIEW
 70
     1
  9
$SHADEDGE
 70
     3
  9
$SHADEDIF
 70
    70
  9
$TILEMODE
 70
     1
  9
$MAXACTVP
 70
    64
  9
$PINSBASE
 10
0.0
 20
0.0
 30
0.0
  9
$PLIMCHECK
 70
     0
  9
$PEXTMIN
 10
1.000000000000000E+20
 20
1.000000000000000E+20
 30
1.000000000000000E+20
  9
$PEXTMAX
 10
-1.000000000000000E+20
 20
-1.000000000000000E+20
 30
-1.000000000000000E+20
  9
$PLIMMIN
 10
0.0
 20
0.0
  9
$PLIMMAX
 10
420.0
 20
297.0
  9
$UNITMODE
 70
     0
  9
$VISRETAIN
 70
     1
  9
$PLINEGEN
 70
     0
  9
$PSLTSCALE
 70
     1
  9
$TREEDEPTH
 70
  3020
  9
$CMLSTYLE
  2
Standard
  9
$CMLJUST
 70
     0
  9
$CMLSCALE
 40
20.0
  9
$PROXYGRAPHICS
 70
     1
  9
$MEASUREMENT
 70
     1
  9
$CELWEIGHT
370
    -1
  9
$ENDCAPS
280
     0
  9
$JOINSTYLE
280
     0
  9
$LWDISPLAY
290
     0
  9
$INSUNITS
 70
     4
  9
$HYPERLINKBASE
  1

  9
$STYLESHEET
  1
monochrome.ctb
  9
$XEDIT
290
     1
  9
$CEPSNTYPE
380
     0
  9
$PSTYLEMODE
290
     1
  9
$FINGERPRINTGUID
  2
{6D68E142-2541-11D6-A2ED-90BA86E43932}
  9
$VERSIONGUID
  2
{B090CEA6-CB21-4089-B373-08A0DD618BA6}
  9
$EXTNAMES
290
     1
  9
$PSVPSCALE
 40
0.0
  9
$OLESTARTUP
290
     0
  0
ENDSEC
  0
SECTION
  2
CLASSES
  0
CLASS
  1
ACDBDICTIONARYWDFLT
  2
AcDbDictionaryWithDefault
  3
AutoCAD 2000
 90
        0
280
     0
281
     0
  0
CLASS
  1
ACDBPLACEHOLDER
  2
AcDbPlaceHolder
  3
AutoCAD 2000
 90
        0
280
     0
281
     0
  0
CLASS
  1
LAYOUT
  2
AcDbLayout
  3
AutoCAD 2000
 90
        0
280
     0
281
     0
  0
CLASS
  1
DICTIONARYVAR
  2
AcDbDictionaryVar
  3
AutoCAD 2000
 90
        0
280
     0
281
     0
  0
CLASS
  1
AMDTACMWBLOCKBOMENTITY
  2
AmdtAcmWblockBomEntity
  3
"AcmSymBB|Product Description: AutoCAD Mechanical 2000|Company: Autodesk"
 90
    33791
280
     1
281
     1
  0
CLASS
  1
ACDB_PROXY_ENTITY_DATA
  2
AcDbProxyEntityData
  3
AutoCAD 2000
 90
    32768
280
     0
281
     0
  0
ENDSEC
  0
SECTION
  2
TABLES
  0
TABLE
  2
VPORT
  5
19
330
0
100
AcDbSymbolTable
 70
     4
  0
VPORT
  5
28F
330
19
100
AcDbSymbolTableRecord
100
AcDbViewportTableRecord
  2
*Active
 70
     0
 10
0.0
 20
0.0
 11
1.0
 21
1.0
 12
839.6144821475061
 22
571.6077187352915
 13
0.0
 23
0.0
 14
10.0
 24
10.0
 15
10.0
 25
10.0
 16
0.0
 26
0.0
 36
1.0
 17
0.0
 27
0.0
 37
0.0
 40
1100.551289559007
 41
1.702127659574468
 42
50.0
 43
0.0
 44
0.0
 50
0.0
 51
0.0
 71
     0
 72
   100
 73
     1
 74
     3
 75
     0
 76
     0
 77
     0
 78
     0
281
     0
 65
     1
110
0.0
120
0.0
130
0.0
111
1.0
121
0.0
131
0.0
112
0.0
122
1.0
132
0.0
 79
     0
146
0.0
  0
ENDTAB
  0
TABLE
  2
LTYPE
  5
14
330
0
100
AcDbSymbolTable
 70
     1
  0
LTYPE
  5
15
330
14
100
AcDbSymbolTableRecord
100
AcDbLinetypeTableRecord
  2
ByBlock
 70
     0
  3

 72
    65
 73
     0
 40
0.0
  0
LTYPE
  5
16
330
14
100
AcDbSymbolTableRecord
100
AcDbLinetypeTableRecord
  2
ByLayer
 70
     0
  3

 72
    65
 73
     0
 40
0.0
  0
LTYPE
  5
8
330
14
100
AcDbSymbolTableRecord
100
AcDbLinetypeTableRecord
  2
Continuous
 70
     0
  3
Solid line
 72
    65
 73
     0
 40
0.0
  0
ENDTAB
  0
TABLE
  2
LAYER
  5
10
330
0
100
AcDbSymbolTable
 70
     7
  0
LAYER
  5
4
330
10
100
AcDbSymbolTableRecord
100
AcDbLayerTableRecord
  2
0
 70
     0
 62
     7
  6
Continuous
370
    -3
390
5
  0
LAYER
  5
3C
330
10
100
AcDbSymbolTableRecord
100
AcDbLayerTableRecord
  2
DEFPOINTS
 70
     0
 62
     7
  6
Continuous
290
     0
370
    -3
390
5
  0
LAYER
  5
2E
330
10
100
AcDbSymbolTableRecord
100
AcDbLayerTableRecord
  2
A1枠
 70
     0
 62
     7
  6
Continuous
370
    50
390
5
  0
LAYER
  5
2A
330
10
100
AcDbSymbolTableRecord
100
AcDbLayerTableRecord
  2
AM_5
 70
     0
 62
     3
  6
Continuous
370
    18
390
5
  0
LAYER
  5
E2
330
10
100
AcDbSymbolTableRecord
100
AcDbLayerTableRecord
  2
細線
 70
     0
 62
     2
  6
Continuous
370
    18
390
5
  0
LAYER
  5
4F
330
10
100
AcDbSymbolTableRecord
100
AcDbLayerTableRecord
  2
図面範囲
 70
     0
 62
    -7
  6
Continuous
290
     0
370
    -3
390
5
  0
LAYER
  5
30
330
10
100
AcDbSymbolTableRecord
100
AcDbLayerTableRecord
  2
補強板
 70
     0
 62
     6
  6
Continuous
370
    50
390
5
  0
ENDTAB
  0
TABLE
  2
STYLE
  5
11
330
0
100
AcDbSymbolTable
 70
     5
  0
STYLE
  5
12
330
11
100
AcDbSymbolTableRecord
100
AcDbTextStyleTableRecord
  2
Standard
 70
     0
 40
0.0
 41
1.0
 50
0.0
 71
     0
 42
2.5
  3
txt
  4

  0
STYLE
  5
1F
330
11
100
AcDbSymbolTableRecord
100
AcDbTextStyleTableRecord
  2
スタイル１
 70
     0
 40
0.0
 41
1.0
 50
0.0
 71
     0
 42
4.5
  3
MS Gothic.ttf
  4

1001
ACAD
1000
MS Gothic
1071
    32817
  0
STYLE
  5
2B
330
11
100
AcDbSymbolTableRecord
100
AcDbTextStyleTableRecord
  2
表題
 70
     0
 40
0.0
 41
1.0
 50
0.0
 71
     0
 42
4.5
  3
MS Mincho.ttf
  4

1001
ACAD
1000
MS Mincho
1071
    32785
  0
STYLE
  5
106
330
11
100
AcDbSymbolTableRecord
100
AcDbTextStyleTableRecord
  2
大陽東洋酸素
 70
     0
 40
0.0
 41
0.8
 50
0.0
 71
     0
 42
4.5
  3
MS Mincho.ttf
  4

1001
ACAD
1000
MS Mincho
1071
    32785
  0
STYLE
  5
63
330
11
100
AcDbSymbolTableRecord
100
AcDbTextStyleTableRecord
  2
TITLE
 70
     0
 40
0.0
 41
1.0
 50
0.0
 71
     0
 42
0.8
  3
MS Mincho.ttf
  4

1001
ACAD
1000
MS Mincho
1071
    32785
  0
ENDTAB
  0
TABLE
  2
VIEW
  5
17
330
0
100
AcDbSymbolTable
 70
     0
  0
ENDTAB
  0
TABLE
  2
UCS
  5
18
330
0
100
AcDbSymbolTable
 70
     0
  0
ENDTAB
  0
TABLE
  2
APPID
  5
1B
330
0
100
AcDbSymbolTable
 70
     1
  0
APPID
  5
1C
330
1B
100
AcDbSymbolTableRecord
100
AcDbRegAppTableRecord
  2
ACAD
 70
     0
  0
ENDTAB
  0
TABLE
  2
DIMSTYLE
  5
1D
330
0
100
AcDbSymbolTable
 70
     1
100
AcDbDimStyleTable
 71
     1
340
1E
  0
DIMSTYLE
105
1E
102
{ACAD_REACTORS
330
6E
330
7B
330
9D
330
AC
330
33
330
41
330
53
330
8B
330
1B0
330
1BD
330
1FA
330
207
330
1DA
330
1E7
330
214
330
F7
330
1A0
330
1CC
330
BA
330
D0
330
184
330
193
330
262
102
}
330
1D
100
AcDbSymbolTableRecord
100
AcDbDimStyleTableRecord
  2
スタイル2
 70
     0
 41
4.0
 42
2.0
 43
21.0
 44
2.0
 48
0.000000001
 73
     0
 74
     0
 77
     1
 78
     8
140
7.0
147
1.0
171
     3
172
     1
176
     2
177
     2
271
     2
272
     2
274
     3
289
     0
340
1F
341
20
342
20
  0
ENDTAB
  0
TABLE
  2
BLOCK_RECORD
  5
1
330
0
100
AcDbSymbolTable
 70
    24
  0
BLOCK_RECORD
  5
2
330
1
100
AcDbSymbolTableRecord
100
AcDbBlockTableRecord
  2
*Model_Space
340
A
  0
BLOCK_RECORD
  5
C
330
1
100
AcDbSymbolTableRecord
100
AcDbBlockTableRecord
  2
*Paper_Space
340
F
  0
BLOCK_RECORD
  5
20
330
1
100
AcDbSymbolTableRecord
100
AcDbBlockTableRecord
  2
_Open30
340
0
102
{BLKREFS
331
46
331
47
331
38
331
39
331
58
331
59
331
90
331
91
331
81
331
82
331
73
331
74
331
B1
331
B2
331
A4
331
A5
331
189
331
18A
331
1EC
331
1ED
331
1DF
331
1E0
331
FC
331
FD
331
1A5
331
1A6
331
1C2
331
1C3
331
1B5
331
1B6
331
D5
331
D6
331
198
331
199
331
219
331
21A
331
BF
331
C0
331
1D1
331
1D2
331
20C
331
20D
331
1FF
331
200
331
265
331
266
102
}
  0
BLOCK_RECORD
  5
6F
330
1
100
AcDbSymbolTableRecord
100
AcDbBlockTableRecord
  2
*D1
340
0
  0
BLOCK_RECORD
  5
7C
330
1
100
AcDbSymbolTableRecord
100
AcDbBlockTableRecord
  2
*D2
340
0
  0
BLOCK_RECORD
  5
9E
330
1
100
AcDbSymbolTableRecord
100
AcDbBlockTableRecord
  2
*D3
340
0
  0
BLOCK_RECORD
  5
AD
330
1
100
AcDbSymbolTableRecord
100
AcDbBlockTableRecord
  2
*D4
340
0
  0
BLOCK_RECORD
  5
34
330
1
100
AcDbSymbolTableRecord
100
AcDbBlockTableRecord
  2
*D5
340
0
  0
BLOCK_RECORD
  5
42
330
1
100
AcDbSymbolTableRecord
100
AcDbBlockTableRecord
  2
*D6
340
0
  0
BLOCK_RECORD
  5
54
330
1
100
AcDbSymbolTableRecord
100
AcDbBlockTableRecord
  2
*D7
340
0
  0
BLOCK_RECORD
  5
8C
330
1
100
AcDbSymbolTableRecord
100
AcDbBlockTableRecord
  2
*D8
340
0
  0
BLOCK_RECORD
  5
1B1
330
1
100
AcDbSymbolTableRecord
100
AcDbBlockTableRecord
  2
*D9
340
0
  0
BLOCK_RECORD
  5
1BE
330
1
100
AcDbSymbolTableRecord
100
AcDbBlockTableRecord
  2
*D10
340
0
  0
BLOCK_RECORD
  5
1FB
330
1
100
AcDbSymbolTableRecord
100
AcDbBlockTableRecord
  2
*D11
340
0
  0
BLOCK_RECORD
  5
208
330
1
100
AcDbSymbolTableRecord
100
AcDbBlockTableRecord
  2
*D12
340
0
  0
BLOCK_RECORD
  5
1DB
330
1
100
AcDbSymbolTableRecord
100
AcDbBlockTableRecord
  2
*D13
340
0
  0
BLOCK_RECORD
  5
1E8
330
1
100
AcDbSymbolTableRecord
100
AcDbBlockTableRecord
  2
*D14
340
0
  0
BLOCK_RECORD
  5
215
330
1
100
AcDbSymbolTableRecord
100
AcDbBlockTableRecord
  2
*D15
340
0
  0
BLOCK_RECORD
  5
F8
330
1
100
AcDbSymbolTableRecord
100
AcDbBlockTableRecord
  2
*D16
340
0
  0
BLOCK_RECORD
  5
1A1
330
1
100
AcDbSymbolTableRecord
100
AcDbBlockTableRecord
  2
*D17
340
0
  0
BLOCK_RECORD
  5
1CD
330
1
100
AcDbSymbolTableRecord
100
AcDbBlockTableRecord
  2
*D18
340
0
  0
BLOCK_RECORD
  5
BB
330
1
100
AcDbSymbolTableRecord
100
AcDbBlockTableRecord
  2
*D19
340
0
  0
BLOCK_RECORD
  5
D1
330
1
100
AcDbSymbolTableRecord
100
AcDbBlockTableRecord
  2
*D20
340
0
  0
BLOCK_RECORD
  5
185
330
1
100
AcDbSymbolTableRecord
100
AcDbBlockTableRecord
  2
*D21
340
0
  0
BLOCK_RECORD
  5
194
330
1
100
AcDbSymbolTableRecord
100
AcDbBlockTableRecord
  2
*D22
340
0
  0
BLOCK_RECORD
  5
263
330
1
100
AcDbSymbolTableRecord
100
AcDbBlockTableRecord
  2
*D23
340
0
  0
ENDTAB
  0
ENDSEC
  0
SECTION
  2
BLOCKS
  0
BLOCK
  5
3
330
2
100
AcDbEntity
  8
0
100
AcDbBlockBegin
  2
*Model_Space
 70
     2
 10
0.0
 20
0.0
 30
0.0
  3
*Model_Space
  1

  0
ENDBLK
  5
9
330
2
100
AcDbEntity
  8
0
100
AcDbBlockEnd
  0
BLOCK
  5
D
330
C
100
AcDbEntity
 67
     1
  8
0
100
AcDbBlockBegin
  2
*Paper_Space
 70
     0
 10
0.0
 20
0.0
 30
0.0
  3
*Paper_Space
  1

  0
ENDBLK
  5
E
330
C
100
AcDbEntity
 67
     1
  8
0
100
AcDbBlockEnd
  0
BLOCK
  5
24
330
20
100
AcDbEntity
  8
0
100
AcDbBlockBegin
  2
_Open30
 70
     0
 10
0.0
 20
0.0
 30
0.0
  3
_Open30
  1

  0
LINE
  5
21
330
20
100
AcDbEntity
  8
0
 62
     0
370
    -2
380
     1
100
AcDbLine
 10
-1.0
 20
0.26794919
 30
0.0
 11
0.0
 21
0.0
 31
0.0
  0
LINE
  5
22
330
20
100
AcDbEntity
  8
0
 62
     0
370
    -2
380
     1
100
AcDbLine
 10
0.0
 20
0.0
 30
0.0
 11
-1.0
 21
-0.26794919
 31
0.0
  0
LINE
  5
23
330
20
100
AcDbEntity
  8
0
 62
     0
370
    -2
380
     1
100
AcDbLine
 10
0.0
 20
0.0
 30
0.0
 11
-1.0
 21
0.0
 31
0.0
  0
ENDBLK
  5
25
330
20
100
AcDbEntity
  8
0
100
AcDbBlockEnd
  0
BLOCK
  5
79
330
6F
100
AcDbEntity
  8
0
100
AcDbBlockBegin
  2
*D1
 70
     1
 10
0.0
 20
0.0
 30
0.0
  3
*D1
  1

  0
LINE
  5
70
330
6F
100
AcDbEntity
  8
AM_5
 62
     2
370
    -2
100
AcDbLine
 10
135.5839633567793
 20
825.6089378033138
 30
0.0
 11
69.23354922189357
 21
825.6089378033138
 31
0.0
  0
LINE
  5
71
330
6F
100
AcDbEntity
  8
AM_5
 62
     2
370
    -2
100
AcDbLine
 10
116.5839633567793
 20
745.6089378033139
 30
0.0
 11
69.23354922189355
 21
745.6089378033139
 31
0.0
  0
LINE
  5
72
330
6F
100
AcDbEntity
  8
AM_5
 62
     2
370
    -2
100
AcDbLine
 10
71.23354922189356
 20
821.6089378033139
 30
0.0
 11
71.23354922189355
 21
749.6089378033139
 31
0.0
  0
INSERT
  5
73
330
6F
100
AcDbEntity
  8
AM_5
 62
     2
370
    -2
100
AcDbBlockReference
  2
_Open30
 10
71.23354922189356
 20
825.6089378033138
 30
0.0
 41
4.0
 42
4.0
 43
4.0
 50
90.0
  0
INSERT
  5
74
330
6F
100
AcDbEntity
  8
AM_5
 62
     2
370
    -2
100
AcDbBlockReference
  2
_Open30
 10
71.23354922189355
 20
745.6089378033139
 30
0.0
 41
4.0
 42
4.0
 43
4.0
 50
270.0
  0
MTEXT
  5
75
330
6F
100
AcDbEntity
  8
AM_5
 62
     0
100
AcDbMText
 10
66.73354922189343
 20
785.6089378033138
 30
0.0
 40
7.0
 41
0.0
 71
     5
 72
     1
  1
\A1;80
  7
スタイル１
 11
0.0000000000000001
 21
1.0
 31
0.0
 73
     1
 44
1.0
  0
POINT
  5
76
330
6F
100
AcDbEntity
  8
DEFPOINTS
 62
     0
100
AcDbPoint
 10
137.5839633567793
 20
825.6089378033138
 30
0.0
  0
POINT
  5
77
330
6F
100
AcDbEntity
  8
DEFPOINTS
 62
     0
100
AcDbPoint
 10
118.5839633567793
 20
745.6089378033139
 30
0.0
  0
POINT
  5
78
330
6F
100
AcDbEntity
  8
DEFPOINTS
 62
     0
100
AcDbPoint
 10
71.23354922189355
 20
745.6089378033139
 30
0.0
  0
ENDBLK
  5
7A
330
6F
100
AcDbEntity
  8
0
100
AcDbBlockEnd
  0
BLOCK
  5
89
330
7C
100
AcDbEntity
  8
0
100
AcDbBlockBegin
  2
*D2
 70
     1
 10
0.0
 20
0.0
 30
0.0
  3
*D2
  1

  0
LINE
  5
7D
330
7C
100
AcDbEntity
  8
AM_5
 62
     2
370
    -2
100
AcDbLine
 10
116.8519125492103
 20
813.6392826887108
 30
0.0
 11
94.53205218544599
 21
800.7529052994167
 31
0.0
  0
ARC
  5
7E
330
7C
100
AcDbEntity
  8
AM_5
 62
     2
370
    -2
100
AcDbCircle
 10
137.5839633567794
 20
825.6089378033138
 30
0.0
 40
47.71206500779433
100
AcDbArc
 50
170.3902592138138
 51
175.1951296069069
  0
ARC
  5
7F
330
7C
100
AcDbEntity
  8
AM_5
 62
     2
370
    -2
100
AcDbCircle
 10
137.5839633567794
 20
825.6089378033138
 30
0.0
 40
47.71206500779433
100
AcDbArc
 50
214.8048703930929
 51
219.6097407861859
  0
ARC
  5
80
330
7C
100
AcDbEntity
  8
AM_5
 62
     2
370
    -2
100
AcDbCircle
 10
137.5839633567794
 20
825.6089378033138
 30
0.0
 40
47.71206500779433
100
AcDbArc
 50
179.9999999999999
 51
209.9999999999999
  0
INSERT
  5
81
330
7C
100
AcDbEntity
  8
AM_5
 62
     2
370
    -2
100
AcDbBlockReference
  2
_Open30
 10
89.87189834898504
 20
825.6089378033138
 30
0.0
 41
4.0
 42
4.0
 43
4.0
 50
267.5975648034534
  0
INSERT
  5
82
330
7C
100
AcDbEntity
  8
AM_5
 62
     2
370
    -2
100
AcDbBlockReference
  2
_Open30
 10
96.26410299301483
 20
801.7529052994166
 30
0.0
 41
4.0
 42
4.0
 43
4.0
 50
122.4024351965464
  0
MTEXT
  5
83
330
7C
100
AcDbEntity
  8
AM_5
 62
     0
100
AcDbMText
 10
97.68384055704798
 20
809.0178931465057
 30
0.0
 40
7.0
 41
0.0
 71
     5
 72
     1
  1
\A1;30°
  7
スタイル１
 11
0.3839447305703973
 21
-0.9233560764229718
 31
0.0
 73
     1
 44
1.0
  0
POINT
  5
84
330
7C
100
AcDbEntity
  8
DEFPOINTS
 62
     0
100
AcDbPoint
 10
90.59675182488104
 20
817.3238246619842
 30
0.0
  0
POINT
  5
85
330
7C
100
AcDbEntity
  8
DEFPOINTS
 62
     0
100
AcDbPoint
 10
137.5839633567794
 20
825.6089378033138
 30
0.0
  0
POINT
  5
86
330
7C
100
AcDbEntity
  8
DEFPOINTS
 62
     0
100
AcDbPoint
 10
118.5839633567792
 20
814.6392826887108
 30
0.0
  0
POINT
  5
87
330
7C
100
AcDbEntity
  8
DEFPOINTS
 62
     0
100
AcDbPoint
 10
137.5839633567794
 20
825.6089378033138
 30
0.0
  0
POINT
  5
88
330
7C
100
AcDbEntity
  8
DEFPOINTS
 62
     0
100
AcDbPoint
 10
51.29904616768363
 20
825.6089378033138
 30
0.0
  0
ENDBLK
  5
8A
330
7C
100
AcDbEntity
  8
0
100
AcDbBlockEnd
  0
BLOCK
  5
AA
330
9E
100
AcDbEntity
  8
0
100
AcDbBlockBegin
  2
*D3
 70
     1
 10
0.0
 20
0.0
 30
0.0
  3
*D3
  1

  0
LINE
  5
9F
330
9E
100
AcDbEntity
  8
AM_5
 62
     2
370
    -2
100
AcDbLine
 10
138.5839633567793
 20
827.6089378033139
 30
0.0
 11
138.5839633567793
 21
848.7044400481609
 31
0.0
  0
LINE
  5
A0
330
9E
100
AcDbEntity
  8
AM_5
 62
     2
370
    -2
100
AcDbLine
 10
137.5839633567793
 20
827.6089378033139
 30
0.0
 11
137.5839633567793
 21
848.7044400481609
 31
0.0
  0
LINE
  5
A1
330
9E
100
AcDbEntity
  8
AM_5
 62
     2
370
    -2
100
AcDbLine
 10
142.5839633567793
 20
846.7044400481608
 30
0.0
 11
146.5839633567793
 21
846.7044400481608
 31
0.0
  0
LINE
  5
A2
330
9E
100
AcDbEntity
  8
AM_5
 62
     2
370
    -2
100
AcDbLine
 10
133.5839633567793
 20
846.7044400481608
 30
0.0
 11
125.7007146258148
 21
846.7044400481608
 31
0.0
  0
LINE
  5
A3
330
9E
100
AcDbEntity
  8
AM_5
 62
     2
370
    -2
100
AcDbLine
 10
138.5839633567793
 20
846.7044400481608
 30
0.0
 11
137.5839633567793
 21
846.7044400481608
 31
0.0
  0
INSERT
  5
A4
330
9E
100
AcDbEntity
  8
AM_5
 62
     2
370
    -2
100
AcDbBlockReference
  2
_Open30
 10
138.5839633567793
 20
846.7044400481608
 30
0.0
 41
4.0
 42
4.0
 43
4.0
 50
180.0
  0
INSERT
  5
A5
330
9E
100
AcDbEntity
  8
AM_5
 62
     2
370
    -2
100
AcDbBlockReference
  2
_Open30
 10
137.5839633567793
 20
846.7044400481608
 30
0.0
 41
4.0
 42
4.0
 43
4.0
  0
MTEXT
  5
A6
330
9E
100
AcDbEntity
  8
AM_5
 62
     0
100
AcDbMText
 10
127.6423389912971
 20
851.204440048161
 30
0.0
 40
7.0
 41
0.0
 71
     5
 72
     1
  1
\A1;1
  7
スタイル１
 73
     1
 44
1.0
  0
POINT
  5
A7
330
9E
100
AcDbEntity
  8
DEFPOINTS
 62
     0
100
AcDbPoint
 10
138.5839633567793
 20
825.6089378033138
 30
0.0
  0
POINT
  5
A8
330
9E
100
AcDbEntity
  8
DEFPOINTS
 62
     0
100
AcDbPoint
 10
137.5839633567793
 20
825.6089378033138
 30
0.0
  0
POINT
  5
A9
330
9E
100
AcDbEntity
  8
DEFPOINTS
 62
     0
100
AcDbPoint
 10
137.5839633567793
 20
846.7044400481608
 30
0.0
  0
ENDBLK
  5
AB
330
9E
100
AcDbEntity
  8
0
100
AcDbBlockEnd
  0
BLOCK
  5
B7
330
AD
100
AcDbEntity
  8
0
100
AcDbBlockBegin
  2
*D4
 70
     1
 10
0.0
 20
0.0
 30
0.0
  3
*D4
  1

  0
LINE
  5
AE
330
AD
100
AcDbEntity
  8
AM_5
 62
     2
370
    -2
100
AcDbLine
 10
138.5839633567793
 20
827.6089378033139
 30
0.0
 11
138.5839633567793
 21
869.7044400481608
 31
0.0
  0
LINE
  5
AF
330
AD
100
AcDbEntity
  8
AM_5
 62
     2
370
    -2
100
AcDbLine
 10
118.5839633567793
 20
816.6392826887108
 30
0.0
 11
118.5839633567793
 21
869.7044400481608
 31
0.0
  0
LINE
  5
B0
330
AD
100
AcDbEntity
  8
AM_5
 62
     2
370
    -2
100
AcDbLine
 10
134.5839633567793
 20
867.7044400481609
 30
0.0
 11
122.5839633567793
 21
867.7044400481609
 31
0.0
  0
INSERT
  5
B1
330
AD
100
AcDbEntity
  8
AM_5
 62
     2
370
    -2
100
AcDbBlockReference
  2
_Open30
 10
138.5839633567793
 20
867.7044400481609
 30
0.0
 41
4.0
 42
4.0
 43
4.0
  0
INSERT
  5
B2
330
AD
100
AcDbEntity
  8
AM_5
 62
     2
370
    -2
100
AcDbBlockReference
  2
_Open30
 10
118.5839633567793
 20
867.7044400481609
 30
0.0
 41
4.0
 42
4.0
 43
4.0
 50
180.0
  0
MTEXT
  5
B3
330
AD
100
AcDbEntity
  8
AM_5
 62
     0
100
AcDbMText
 10
128.5839633567793
 20
872.2044400481609
 30
0.0
 40
7.0
 41
0.0
 71
     5
 72
     1
  1
\A1;20
  7
スタイル１
 73
     1
 44
1.0
  0
POINT
  5
B4
330
AD
100
AcDbEntity
  8
DEFPOINTS
 62
     0
100
AcDbPoint
 10
138.5839633567793
 20
825.6089378033138
 30
0.0
  0
POINT
  5
B5
330
AD
100
AcDbEntity
  8
DEFPOINTS
 62
     0
100
AcDbPoint
 10
118.5839633567793
 20
814.6392826887108
 30
0.0
  0
POINT
  5
B6
330
AD
100
AcDbEntity
  8
DEFPOINTS
 62
     0
100
AcDbPoint
 10
118.5839633567793
 20
867.7044400481609
 30
0.0
  0
ENDBLK
  5
B8
330
AD
100
AcDbEntity
  8
0
100
AcDbBlockEnd
  0
BLOCK
  5
3F
330
34
100
AcDbEntity
  8
0
100
AcDbBlockBegin
  2
*D5
 70
     1
 10
0.0
 20
0.0
 30
0.0
  3
*D5
  1

  0
LINE
  5
35
330
34
100
AcDbEntity
  8
AM_5
 62
     2
370
    -2
100
AcDbLine
 10
215.310313592532
 20
827.6089378033139
 30
0.0
 11
215.310313592532
 21
869.7044400481608
 31
0.0
  0
LINE
  5
36
330
34
100
AcDbEntity
  8
AM_5
 62
     2
370
    -2
100
AcDbLine
 10
845.3103135925339
 20
827.608937803313
 30
0.0
 11
845.3103135925339
 21
869.7044400481608
 31
0.0
  0
LINE
  5
37
330
34
100
AcDbEntity
  8
AM_5
 62
     2
370
    -2
100
AcDbLine
 10
219.3103135925321
 20
867.7044400481609
 30
0.0
 11
841.3103135925339
 21
867.7044400481609
 31
0.0
  0
INSERT
  5
38
330
34
100
AcDbEntity
  8
AM_5
 62
     2
370
    -2
100
AcDbBlockReference
  2
_Open30
 10
215.310313592532
 20
867.7044400481609
 30
0.0
 41
4.0
 42
4.0
 43
4.0
 50
180.0
  0
INSERT
  5
39
330
34
100
AcDbEntity
  8
AM_5
 62
     2
370
    -2
100
AcDbBlockReference
  2
_Open30
 10
845.3103135925339
 20
867.7044400481609
 30
0.0
 41
4.0
 42
4.0
 43
4.0
  0
MTEXT
  5
3A
330
34
100
AcDbEntity
  8
AM_5
 62
     0
100
AcDbMText
 10
530.310313592533
 20
872.2044400481609
 30
0.0
 40
7.0
 41
0.0
 71
     5
 72
     1
  1
\A1;1260
  7
スタイル１
 73
     1
 44
1.0
  0
POINT
  5
3B
330
34
100
AcDbEntity
  8
DEFPOINTS
 62
     0
100
AcDbPoint
 10
215.310313592532
 20
825.6089378033138
 30
0.0
  0
POINT
  5
3D
330
34
100
AcDbEntity
  8
DEFPOINTS
 62
     0
100
AcDbPoint
 10
845.3103135925339
 20
825.6089378033129
 30
0.0
  0
POINT
  5
3E
330
34
100
AcDbEntity
  8
DEFPOINTS
 62
     0
100
AcDbPoint
 10
845.3103135925339
 20
867.7044400481609
 30
0.0
  0
ENDBLK
  5
40
330
34
100
AcDbEntity
  8
0
100
AcDbBlockEnd
  0
BLOCK
  5
4C
330
42
100
AcDbEntity
  8
0
100
AcDbBlockBegin
  2
*D6
 70
     1
 10
0.0
 20
0.0
 30
0.0
  3
*D6
  1

  0
LINE
  5
43
330
42
100
AcDbEntity
  8
AM_5
 62
     2
370
    -2
100
AcDbLine
 10
215.310313592532
 20
468.6881208665218
 30
0.0
 11
215.310313592532
 21
510.7836231113688
 31
0.0
  0
LINE
  5
44
330
42
100
AcDbEntity
  8
AM_5
 62
     2
370
    -2
100
AcDbLine
 10
845.3103135925339
 20
468.6881208665209
 30
0.0
 11
845.3103135925339
 21
510.7836231113688
 31
0.0
  0
LINE
  5
45
330
42
100
AcDbEntity
  8
AM_5
 62
     2
370
    -2
100
AcDbLine
 10
219.3103135925321
 20
508.7836231113688
 30
0.0
 11
841.3103135925339
 21
508.7836231113688
 31
0.0
  0
INSERT
  5
46
330
42
100
AcDbEntity
  8
AM_5
 62
     2
370
    -2
100
AcDbBlockReference
  2
_Open30
 10
215.310313592532
 20
508.7836231113688
 30
0.0
 41
4.0
 42
4.0
 43
4.0
 50
180.0
  0
INSERT
  5
47
330
42
100
AcDbEntity
  8
AM_5
 62
     2
370
    -2
100
AcDbBlockReference
  2
_Open30
 10
845.3103135925339
 20
508.7836231113688
 30
0.0
 41
4.0
 42
4.0
 43
4.0
  0
MTEXT
  5
48
330
42
100
AcDbEntity
  8
AM_5
 62
     0
100
AcDbMText
 10
530.310313592533
 20
513.2836231113688
 30
0.0
 40
7.0
 41
0.0
 71
     5
 72
     1
  1
\A1;1260
  7
スタイル１
 73
     1
 44
1.0
  0
POINT
  5
49
330
42
100
AcDbEntity
  8
DEFPOINTS
 62
     0
100
AcDbPoint
 10
215.310313592532
 20
466.6881208665217
 30
0.0
  0
POINT
  5
4A
330
42
100
AcDbEntity
  8
DEFPOINTS
 62
     0
100
AcDbPoint
 10
845.3103135925339
 20
466.6881208665208
 30
0.0
  0
POINT
  5
4B
330
42
100
AcDbEntity
  8
DEFPOINTS
 62
     0
100
AcDbPoint
 10
845.3103135925339
 20
508.7836231113688
 30
0.0
  0
ENDBLK
  5
4D
330
42
100
AcDbEntity
  8
0
100
AcDbBlockEnd
  0
BLOCK
  5
5E
330
54
100
AcDbEntity
  8
0
100
AcDbBlockBegin
  2
*D7
 70
     1
 10
0.0
 20
0.0
 30
0.0
  3
*D7
  1

  0
LINE
  5
55
330
54
100
AcDbEntity
  8
AM_5
 62
     2
370
    -2
100
AcDbLine
 10
116.5839633567793
 20
386.6881208665217
 30
0.0
 11
69.23354922189353
 21
386.6881208665217
 31
0.0
  0
LINE
  5
56
330
54
100
AcDbEntity
  8
AM_5
 62
     2
370
    -2
100
AcDbLine
 10
116.5839633567793
 20
466.6881208665217
 30
0.0
 11
69.23354922189355
 21
466.6881208665217
 31
0.0
  0
LINE
  5
57
330
54
100
AcDbEntity
  8
AM_5
 62
     2
370
    -2
100
AcDbLine
 10
71.23354922189354
 20
390.6881208665217
 30
0.0
 11
71.23354922189355
 21
462.6881208665217
 31
0.0
  0
INSERT
  5
58
330
54
100
AcDbEntity
  8
AM_5
 62
     2
370
    -2
100
AcDbBlockReference
  2
_Open30
 10
71.23354922189354
 20
386.6881208665217
 30
0.0
 41
4.0
 42
4.0
 43
4.0
 50
270.0
  0
INSERT
  5
59
330
54
100
AcDbEntity
  8
AM_5
 62
     2
370
    -2
100
AcDbBlockReference
  2
_Open30
 10
71.23354922189355
 20
466.6881208665217
 30
0.0
 41
4.0
 42
4.0
 43
4.0
 50
90.0
  0
MTEXT
  5
5A
330
54
100
AcDbEntity
  8
AM_5
 62
     0
100
AcDbMText
 10
66.73354922189348
 20
426.6881208665218
 30
0.0
 40
7.0
 41
0.0
 71
     5
 72
     1
  1
\A1;80
  7
スタイル１
 11
0.0000000000000001
 21
1.0
 31
0.0
 73
     1
 44
1.0
  0
POINT
  5
5B
330
54
100
AcDbEntity
  8
DEFPOINTS
 62
     0
100
AcDbPoint
 10
118.5839633567793
 20
386.6881208665217
 30
0.0
  0
POINT
  5
5C
330
54
100
AcDbEntity
  8
DEFPOINTS
 62
     0
100
AcDbPoint
 10
118.5839633567793
 20
466.6881208665217
 30
0.0
  0
POINT
  5
5D
330
54
100
AcDbEntity
  8
DEFPOINTS
 62
     0
100
AcDbPoint
 10
71.23354922189355
 20
466.6881208665217
 30
0.0
  0
ENDBLK
  5
5F
330
54
100
AcDbEntity
  8
0
100
AcDbBlockEnd
  0
BLOCK
  5
96
330
8C
100
AcDbEntity
  8
0
100
AcDbBlockBegin
  2
*D8
 70
     1
 10
0.0
 20
0.0
 30
0.0
  3
*D8
  1

  0
LINE
  5
8D
330
8C
100
AcDbEntity
  8
AM_5
 62
     2
370
    -2
100
AcDbLine
 10
118.5839633567793
 20
468.6881208665218
 30
0.0
 11
118.5839633567793
 21
510.7836231113688
 31
0.0
  0
LINE
  5
8E
330
8C
100
AcDbEntity
  8
AM_5
 62
     2
370
    -2
100
AcDbLine
 10
138.5839633567793
 20
468.6881208665218
 30
0.0
 11
138.5839633567793
 21
510.7836231113688
 31
0.0
  0
LINE
  5
8F
330
8C
100
AcDbEntity
  8
AM_5
 62
     2
370
    -2
100
AcDbLine
 10
122.5839633567793
 20
508.7836231113688
 30
0.0
 11
134.5839633567793
 21
508.7836231113688
 31
0.0
  0
INSERT
  5
90
330
8C
100
AcDbEntity
  8
AM_5
 62
     2
370
    -2
100
AcDbBlockReference
  2
_Open30
 10
118.5839633567793
 20
508.7836231113688
 30
0.0
 41
4.0
 42
4.0
 43
4.0
 50
180.0
  0
INSERT
  5
91
330
8C
100
AcDbEntity
  8
AM_5
 62
     2
370
    -2
100
AcDbBlockReference
  2
_Open30
 10
138.5839633567793
 20
508.7836231113688
 30
0.0
 41
4.0
 42
4.0
 43
4.0
  0
MTEXT
  5
92
330
8C
100
AcDbEntity
  8
AM_5
 62
     0
100
AcDbMText
 10
128.5839633567793
 20
513.2836231113688
 30
0.0
 40
7.0
 41
0.0
 71
     5
 72
     1
  1
\A1;20
  7
スタイル１
 73
     1
 44
1.0
  0
POINT
  5
93
330
8C
100
AcDbEntity
  8
DEFPOINTS
 62
     0
100
AcDbPoint
 10
118.5839633567793
 20
466.6881208665217
 30
0.0
  0
POINT
  5
94
330
8C
100
AcDbEntity
  8
DEFPOINTS
 62
     0
100
AcDbPoint
 10
138.5839633567793
 20
466.6881208665217
 30
0.0
  0
POINT
  5
95
330
8C
100
AcDbEntity
  8
DEFPOINTS
 62
     0
100
AcDbPoint
 10
138.5839633567793
 20
508.7836231113688
 30
0.0
  0
ENDBLK
  5
97
330
8C
100
AcDbEntity
  8
0
100
AcDbBlockEnd
  0
BLOCK
  5
1BB
330
1B1
100
AcDbEntity
  8
0
100
AcDbBlockBegin
  2
*D9
 70
     1
 10
0.0
 20
0.0
 30
0.0
  3
*D9
  1

  0
LINE
  5
1B2
330
1B1
100
AcDbEntity
  8
AM_5
 62
     2
370
    -2
100
AcDbLine
 10
1106.194070564264
 20
805.608937803313
 30
0.0
 11
1050.766834982607
 21
805.608937803313
 31
0.0
  0
LINE
  5
1B3
330
1B1
100
AcDbEntity
  8
AM_5
 62
     2
370
    -2
100
AcDbLine
 10
1106.194070564264
 20
745.6089378033129
 30
0.0
 11
1050.766834982607
 21
745.6089378033129
 31
0.0
  0
LINE
  5
1B4
330
1B1
100
AcDbEntity
  8
AM_5
 62
     2
370
    -2
100
AcDbLine
 10
1052.766834982607
 20
801.6089378033129
 30
0.0
 11
1052.766834982607
 21
749.6089378033129
 31
0.0
  0
INSERT
  5
1B5
330
1B1
100
AcDbEntity
  8
AM_5
 62
     2
370
    -2
100
AcDbBlockReference
  2
_Open30
 10
1052.766834982607
 20
805.608937803313
 30
0.0
 41
4.0
 42
4.0
 43
4.0
 50
90.0
  0
INSERT
  5
1B6
330
1B1
100
AcDbEntity
  8
AM_5
 62
     2
370
    -2
100
AcDbBlockReference
  2
_Open30
 10
1052.766834982607
 20
745.6089378033129
 30
0.0
 41
4.0
 42
4.0
 43
4.0
 50
270.0
  0
MTEXT
  5
1B7
330
1B1
100
AcDbEntity
  8
AM_5
 62
     0
100
AcDbMText
 10
1048.266834982606
 20
775.6089378033131
 30
0.0
 40
7.0
 41
0.0
 71
     5
 72
     1
  1
\A1;60
  7
スタイル１
 11
0.0000000000000001
 21
1.0
 31
0.0
 73
     1
 44
1.0
  0
POINT
  5
1B8
330
1B1
100
AcDbEntity
  8
DEFPOINTS
 62
     0
100
AcDbPoint
 10
1108.194070564264
 20
805.608937803313
 30
0.0
  0
POINT
  5
1B9
330
1B1
100
AcDbEntity
  8
DEFPOINTS
 62
     0
100
AcDbPoint
 10
1108.194070564264
 20
745.6089378033129
 30
0.0
  0
POINT
  5
1BA
330
1B1
100
AcDbEntity
  8
DEFPOINTS
 62
     0
100
AcDbPoint
 10
1052.766834982607
 20
745.6089378033129
 30
0.0
  0
ENDBLK
  5
1BC
330
1B1
100
AcDbEntity
  8
0
100
AcDbBlockEnd
  0
BLOCK
  5
1C8
330
1BE
100
AcDbEntity
  8
0
100
AcDbBlockBegin
  2
*D10
 70
     1
 10
0.0
 20
0.0
 30
0.0
  3
*D10
  1

  0
LINE
  5
1BF
330
1BE
100
AcDbEntity
  8
AM_5
 62
     2
370
    -2
100
AcDbLine
 10
1108.194070564264
 20
807.6089378033129
 30
0.0
 11
1108.194070564264
 21
869.7044400481608
 31
0.0
  0
LINE
  5
1C0
330
1BE
100
AcDbEntity
  8
AM_5
 62
     2
370
    -2
100
AcDbLine
 10
1128.194070564264
 20
807.6089378033129
 30
0.0
 11
1128.194070564264
 21
869.7044400481608
 31
0.0
  0
LINE
  5
1C1
330
1BE
100
AcDbEntity
  8
AM_5
 62
     2
370
    -2
100
AcDbLine
 10
1112.194070564264
 20
867.7044400481609
 30
0.0
 11
1124.194070564264
 21
867.7044400481609
 31
0.0
  0
INSERT
  5
1C2
330
1BE
100
AcDbEntity
  8
AM_5
 62
     2
370
    -2
100
AcDbBlockReference
  2
_Open30
 10
1108.194070564264
 20
867.7044400481609
 30
0.0
 41
4.0
 42
4.0
 43
4.0
 50
180.0
  0
INSERT
  5
1C3
330
1BE
100
AcDbEntity
  8
AM_5
 62
     2
370
    -2
100
AcDbBlockReference
  2
_Open30
 10
1128.194070564264
 20
867.7044400481609
 30
0.0
 41
4.0
 42
4.0
 43
4.0
  0
MTEXT
  5
1C4
330
1BE
100
AcDbEntity
  8
AM_5
 62
     0
100
AcDbMText
 10
1118.194070564264
 20
872.2044400481609
 30
0.0
 40
7.0
 41
0.0
 71
     5
 72
     1
  1
\A1;20
  7
スタイル１
 73
     1
 44
1.0
  0
POINT
  5
1C5
330
1BE
100
AcDbEntity
  8
DEFPOINTS
 62
     0
100
AcDbPoint
 10
1108.194070564264
 20
805.608937803313
 30
0.0
  0
POINT
  5
1C6
330
1BE
100
AcDbEntity
  8
DEFPOINTS
 62
     0
100
AcDbPoint
 10
1128.194070564264
 20
805.608937803313
 30
0.0
  0
POINT
  5
1C7
330
1BE
100
AcDbEntity
  8
DEFPOINTS
 62
     0
100
AcDbPoint
 10
1128.194070564264
 20
867.7044400481609
 30
0.0
  0
ENDBLK
  5
1C9
330
1BE
100
AcDbEntity
  8
0
100
AcDbBlockEnd
  0
BLOCK
  5
205
330
1FB
100
AcDbEntity
  8
0
100
AcDbBlockBegin
  2
*D11
 70
     1
 10
0.0
 20
0.0
 30
0.0
  3
*D11
  1

  0
LINE
  5
1FC
330
1FB
100
AcDbEntity
  8
AM_5
 62
     2
370
    -2
100
AcDbLine
 10
1338.571882873826
 20
792.608937803313
 30
0.0
 11
1338.571882873826
 21
848.7044400481609
 31
0.0
  0
LINE
  5
1FD
330
1FB
100
AcDbEntity
  8
AM_5
 62
     2
370
    -2
100
AcDbLine
 10
1353.571882873826
 20
807.6089378033129
 30
0.0
 11
1353.571882873826
 21
848.7044400481609
 31
0.0
  0
LINE
  5
1FE
330
1FB
100
AcDbEntity
  8
AM_5
 62
     2
370
    -2
100
AcDbLine
 10
1342.571882873826
 20
846.7044400481608
 30
0.0
 11
1349.571882873826
 21
846.7044400481608
 31
0.0
  0
INSERT
  5
1FF
330
1FB
100
AcDbEntity
  8
AM_5
 62
     2
370
    -2
100
AcDbBlockReference
  2
_Open30
 10
1338.571882873826
 20
846.7044400481608
 30
0.0
 41
4.0
 42
4.0
 43
4.0
 50
180.0
  0
INSERT
  5
200
330
1FB
100
AcDbEntity
  8
AM_5
 62
     2
370
    -2
100
AcDbBlockReference
  2
_Open30
 10
1353.571882873826
 20
846.7044400481608
 30
0.0
 41
4.0
 42
4.0
 43
4.0
  0
MTEXT
  5
201
330
1FB
100
AcDbEntity
  8
AM_5
 62
     0
100
AcDbMText
 10
1346.071882873826
 20
851.204440048161
 30
0.0
 40
7.0
 41
0.0
 71
     5
 72
     1
  1
\A1;15
  7
スタイル１
 73
     1
 44
1.0
  0
POINT
  5
202
330
1FB
100
AcDbEntity
  8
DEFPOINTS
 62
     0
100
AcDbPoint
 10
1338.571882873826
 20
790.6089378033129
 30
0.0
  0
POINT
  5
203
330
1FB
100
AcDbEntity
  8
DEFPOINTS
 62
     0
100
AcDbPoint
 10
1353.571882873826
 20
805.608937803313
 30
0.0
  0
POINT
  5
204
330
1FB
100
AcDbEntity
  8
DEFPOINTS
 62
     0
100
AcDbPoint
 10
1353.571882873826
 20
846.7044400481608
 30
0.0
  0
ENDBLK
  5
206
330
1FB
100
AcDbEntity
  8
0
100
AcDbBlockEnd
  0
BLOCK
  5
212
330
208
100
AcDbEntity
  8
0
100
AcDbBlockBegin
  2
*D12
 70
     1
 10
0.0
 20
0.0
 30
0.0
  3
*D12
  1

  0
LINE
  5
209
330
208
100
AcDbEntity
  8
AM_5
 62
     2
370
    -2
100
AcDbLine
 10
1338.571882873826
 20
792.608937803313
 30
0.0
 11
1338.571882873826
 21
869.7044400481608
 31
0.0
  0
LINE
  5
20A
330
208
100
AcDbEntity
  8
AM_5
 62
     2
370
    -2
100
AcDbLine
 10
1418.571882873826
 20
807.6089378033129
 30
0.0
 11
1418.571882873826
 21
869.7044400481608
 31
0.0
  0
LINE
  5
20B
330
208
100
AcDbEntity
  8
AM_5
 62
     2
370
    -2
100
AcDbLine
 10
1342.571882873826
 20
867.7044400481609
 30
0.0
 11
1414.571882873826
 21
867.7044400481609
 31
0.0
  0
INSERT
  5
20C
330
208
100
AcDbEntity
  8
AM_5
 62
     2
370
    -2
100
AcDbBlockReference
  2
_Open30
 10
1338.571882873826
 20
867.7044400481609
 30
0.0
 41
4.0
 42
4.0
 43
4.0
 50
180.0
  0
INSERT
  5
20D
330
208
100
AcDbEntity
  8
AM_5
 62
     2
370
    -2
100
AcDbBlockReference
  2
_Open30
 10
1418.571882873826
 20
867.7044400481609
 30
0.0
 41
4.0
 42
4.0
 43
4.0
  0
MTEXT
  5
20E
330
208
100
AcDbEntity
  8
AM_5
 62
     0
100
AcDbMText
 10
1378.571882873826
 20
872.2044400481609
 30
0.0
 40
7.0
 41
0.0
 71
     5
 72
     1
  1
\A1;80
  7
スタイル１
 73
     1
 44
1.0
  0
POINT
  5
20F
330
208
100
AcDbEntity
  8
DEFPOINTS
 62
     0
100
AcDbPoint
 10
1338.571882873826
 20
790.6089378033129
 30
0.0
  0
POINT
  5
210
330
208
100
AcDbEntity
  8
DEFPOINTS
 62
     0
100
AcDbPoint
 10
1418.571882873826
 20
805.608937803313
 30
0.0
  0
POINT
  5
211
330
208
100
AcDbEntity
  8
DEFPOINTS
 62
     0
100
AcDbPoint
 10
1418.571882873826
 20
867.7044400481609
 30
0.0
  0
ENDBLK
  5
213
330
208
100
AcDbEntity
  8
0
100
AcDbBlockEnd
  0
BLOCK
  5
1E5
330
1DB
100
AcDbEntity
  8
0
100
AcDbBlockBegin
  2
*D13
 70
     1
 10
0.0
 20
0.0
 30
0.0
  3
*D13
  1

  0
LINE
  5
1DC
330
1DB
100
AcDbEntity
  8
AM_5
 62
     2
370
    -2
100
AcDbLine
 10
1351.571882873826
 20
805.608937803313
 30
0.0
 11
1291.795934054253
 21
805.608937803313
 31
0.0
  0
LINE
  5
1DD
330
1DB
100
AcDbEntity
  8
AM_5
 62
     2
370
    -2
100
AcDbLine
 10
1336.571882873826
 20
790.6089378033125
 30
0.0
 11
1291.795934054253
 21
790.6089378033125
 31
0.0
  0
LINE
  5
1DE
330
1DB
100
AcDbEntity
  8
AM_5
 62
     2
370
    -2
100
AcDbLine
 10
1293.795934054253
 20
801.6089378033129
 30
0.0
 11
1293.795934054253
 21
794.6089378033125
 31
0.0
  0
INSERT
  5
1DF
330
1DB
100
AcDbEntity
  8
AM_5
 62
     2
370
    -2
100
AcDbBlockReference
  2
_Open30
 10
1293.795934054253
 20
805.608937803313
 30
0.0
 41
4.0
 42
4.0
 43
4.0
 50
90.0
  0
INSERT
  5
1E0
330
1DB
100
AcDbEntity
  8
AM_5
 62
     2
370
    -2
100
AcDbBlockReference
  2
_Open30
 10
1293.795934054253
 20
790.6089378033125
 30
0.0
 41
4.0
 42
4.0
 43
4.0
 50
270.0
  0
MTEXT
  5
1E1
330
1DB
100
AcDbEntity
  8
AM_5
 62
     0
100
AcDbMText
 10
1289.295934054252
 20
798.108937803313
 30
0.0
 40
7.0
 41
0.0
 71
     5
 72
     1
  1
\A1;15
  7
スタイル１
 11
0.0000000000000001
 21
1.0
 31
0.0
 73
     1
 44
1.0
  0
POINT
  5
1E2
330
1DB
100
AcDbEntity
  8
DEFPOINTS
 62
     0
100
AcDbPoint
 10
1353.571882873826
 20
805.608937803313
 30
0.0
  0
POINT
  5
1E3
330
1DB
100
AcDbEntity
  8
DEFPOINTS
 62
     0
100
AcDbPoint
 10
1338.571882873826
 20
790.6089378033125
 30
0.0
  0
POINT
  5
1E4
330
1DB
100
AcDbEntity
  8
DEFPOINTS
 62
     0
100
AcDbPoint
 10
1293.795934054253
 20
790.6089378033125
 30
0.0
  0
ENDBLK
  5
1E6
330
1DB
100
AcDbEntity
  8
0
100
AcDbBlockEnd
  0
BLOCK
  5
1F2
330
1E8
100
AcDbEntity
  8
0
100
AcDbBlockBegin
  2
*D14
 70
     1
 10
0.0
 20
0.0
 30
0.0
  3
*D14
  1

  0
LINE
  5
1E9
330
1E8
100
AcDbEntity
  8
AM_5
 62
     2
370
    -2
100
AcDbLine
 10
1336.571882873826
 20
760.608937803313
 30
0.0
 11
1291.795934054253
 21
760.608937803313
 31
0.0
  0
LINE
  5
1EA
330
1E8
100
AcDbEntity
  8
AM_5
 62
     2
370
    -2
100
AcDbLine
 10
1351.571882873826
 20
745.6089378033129
 30
0.0
 11
1291.795934054253
 21
745.6089378033129
 31
0.0
  0
LINE
  5
1EB
330
1E8
100
AcDbEntity
  8
AM_5
 62
     2
370
    -2
100
AcDbLine
 10
1293.795934054253
 20
756.6089378033129
 30
0.0
 11
1293.795934054253
 21
749.6089378033129
 31
0.0
  0
INSERT
  5
1EC
330
1E8
100
AcDbEntity
  8
AM_5
 62
     2
370
    -2
100
AcDbBlockReference
  2
_Open30
 10
1293.795934054253
 20
760.608937803313
 30
0.0
 41
4.0
 42
4.0
 43
4.0
 50
90.0
  0
INSERT
  5
1ED
330
1E8
100
AcDbEntity
  8
AM_5
 62
     2
370
    -2
100
AcDbBlockReference
  2
_Open30
 10
1293.795934054253
 20
745.6089378033129
 30
0.0
 41
4.0
 42
4.0
 43
4.0
 50
270.0
  0
MTEXT
  5
1EE
330
1E8
100
AcDbEntity
  8
AM_5
 62
     0
100
AcDbMText
 10
1289.295934054252
 20
753.1089378033132
 30
0.0
 40
7.0
 41
0.0
 71
     5
 72
     1
  1
\A1;15
  7
スタイル１
 11
0.0000000000000001
 21
1.0
 31
0.0
 73
     1
 44
1.0
  0
POINT
  5
1EF
330
1E8
100
AcDbEntity
  8
DEFPOINTS
 62
     0
100
AcDbPoint
 10
1338.571882873826
 20
760.608937803313
 30
0.0
  0
POINT
  5
1F0
330
1E8
100
AcDbEntity
  8
DEFPOINTS
 62
     0
100
AcDbPoint
 10
1353.571882873826
 20
745.6089378033129
 30
0.0
  0
POINT
  5
1F1
330
1E8
100
AcDbEntity
  8
DEFPOINTS
 62
     0
100
AcDbPoint
 10
1293.795934054253
 20
745.6089378033129
 30
0.0
  0
ENDBLK
  5
1F3
330
1E8
100
AcDbEntity
  8
0
100
AcDbBlockEnd
  0
BLOCK
  5
21F
330
215
100
AcDbEntity
  8
0
100
AcDbBlockBegin
  2
*D15
 70
     1
 10
0.0
 20
0.0
 30
0.0
  3
*D15
  1

  0
LINE
  5
216
330
215
100
AcDbEntity
  8
AM_5
 62
     2
370
    -2
100
AcDbLine
 10
1338.571882873826
 20
758.6089378033129
 30
0.0
 11
1338.571882873826
 21
705.1142865576403
 31
0.0
  0
LINE
  5
217
330
215
100
AcDbEntity
  8
AM_5
 62
     2
370
    -2
100
AcDbLine
 10
1353.571882873826
 20
743.608937803313
 30
0.0
 11
1353.571882873826
 21
705.1142865576403
 31
0.0
  0
LINE
  5
218
330
215
100
AcDbEntity
  8
AM_5
 62
     2
370
    -2
100
AcDbLine
 10
1342.571882873826
 20
707.1142865576403
 30
0.0
 11
1349.571882873826
 21
707.1142865576403
 31
0.0
  0
INSERT
  5
219
330
215
100
AcDbEntity
  8
AM_5
 62
     2
370
    -2
100
AcDbBlockReference
  2
_Open30
 10
1338.571882873826
 20
707.1142865576403
 30
0.0
 41
4.0
 42
4.0
 43
4.0
 50
180.0
  0
INSERT
  5
21A
330
215
100
AcDbEntity
  8
AM_5
 62
     2
370
    -2
100
AcDbBlockReference
  2
_Open30
 10
1353.571882873826
 20
707.1142865576403
 30
0.0
 41
4.0
 42
4.0
 43
4.0
  0
MTEXT
  5
21B
330
215
100
AcDbEntity
  8
AM_5
 62
     0
100
AcDbMText
 10
1346.071882873826
 20
711.6142865576403
 30
0.0
 40
7.0
 41
0.0
 71
     5
 72
     1
  1
\A1;15
  7
スタイル１
 73
     1
 44
1.0
  0
POINT
  5
21C
330
215
100
AcDbEntity
  8
DEFPOINTS
 62
     0
100
AcDbPoint
 10
1338.571882873826
 20
760.608937803313
 30
0.0
  0
POINT
  5
21D
330
215
100
AcDbEntity
  8
DEFPOINTS
 62
     0
100
AcDbPoint
 10
1353.571882873826
 20
745.6089378033129
 30
0.0
  0
POINT
  5
21E
330
215
100
AcDbEntity
  8
DEFPOINTS
 62
     0
100
AcDbPoint
 10
1353.571882873826
 20
707.1142865576403
 30
0.0
  0
ENDBLK
  5
220
330
215
100
AcDbEntity
  8
0
100
AcDbBlockEnd
  0
BLOCK
  5
102
330
F8
100
AcDbEntity
  8
0
100
AcDbBlockBegin
  2
*D16
 70
     1
 10
0.0
 20
0.0
 30
0.0
  3
*D16
  1

  0
LINE
  5
F9
330
F8
100
AcDbEntity
  8
AM_5
 62
     2
370
    -2
100
AcDbLine
 10
1106.194070564264
 20
566.6881208665208
 30
0.0
 11
1050.766834982607
 21
566.6881208665208
 31
0.0
  0
LINE
  5
FA
330
F8
100
AcDbEntity
  8
AM_5
 62
     2
370
    -2
100
AcDbLine
 10
1106.194070564264
 20
386.6881208665208
 30
0.0
 11
1050.766834982607
 21
386.6881208665208
 31
0.0
  0
LINE
  5
FB
330
F8
100
AcDbEntity
  8
AM_5
 62
     2
370
    -2
100
AcDbLine
 10
1052.766834982607
 20
562.6881208665208
 30
0.0
 11
1052.766834982607
 21
390.6881208665208
 31
0.0
  0
INSERT
  5
FC
330
F8
100
AcDbEntity
  8
AM_5
 62
     2
370
    -2
100
AcDbBlockReference
  2
_Open30
 10
1052.766834982607
 20
566.6881208665208
 30
0.0
 41
4.0
 42
4.0
 43
4.0
 50
90.0
  0
INSERT
  5
FD
330
F8
100
AcDbEntity
  8
AM_5
 62
     2
370
    -2
100
AcDbBlockReference
  2
_Open30
 10
1052.766834982607
 20
386.6881208665208
 30
0.0
 41
4.0
 42
4.0
 43
4.0
 50
270.0
  0
MTEXT
  5
FE
330
F8
100
AcDbEntity
  8
AM_5
 62
     0
100
AcDbMText
 10
1048.266834982607
 20
476.688120866521
 30
0.0
 40
7.0
 41
0.0
 71
     5
 72
     1
  1
\A1;180
  7
スタイル１
 11
0.0000000000000001
 21
1.0
 31
0.0
 73
     1
 44
1.0
  0
POINT
  5
FF
330
F8
100
AcDbEntity
  8
DEFPOINTS
 62
     0
100
AcDbPoint
 10
1108.194070564264
 20
566.6881208665208
 30
0.0
  0
POINT
  5
100
330
F8
100
AcDbEntity
  8
DEFPOINTS
 62
     0
100
AcDbPoint
 10
1108.194070564264
 20
386.6881208665208
 30
0.0
  0
POINT
  5
101
330
F8
100
AcDbEntity
  8
DEFPOINTS
 62
     0
100
AcDbPoint
 10
1052.766834982607
 20
386.6881208665208
 30
0.0
  0
ENDBLK
  5
103
330
F8
100
AcDbEntity
  8
0
100
AcDbBlockEnd
  0
BLOCK
  5
1AB
330
1A1
100
AcDbEntity
  8
0
100
AcDbBlockBegin
  2
*D17
 70
     1
 10
0.0
 20
0.0
 30
0.0
  3
*D17
  1

  0
LINE
  5
1A2
330
1A1
100
AcDbEntity
  8
AM_5
 62
     2
370
    -2
100
AcDbLine
 10
1108.194070564264
 20
568.6881208665209
 30
0.0
 11
1108.194070564264
 21
619.4320132268112
 31
0.0
  0
LINE
  5
1A3
330
1A1
100
AcDbEntity
  8
AM_5
 62
     2
370
    -2
100
AcDbLine
 10
1128.194070564264
 20
568.6881208665209
 30
0.0
 11
1128.194070564264
 21
619.4320132268112
 31
0.0
  0
LINE
  5
1A4
330
1A1
100
AcDbEntity
  8
AM_5
 62
     2
370
    -2
100
AcDbLine
 10
1112.194070564264
 20
617.4320132268112
 30
0.0
 11
1124.194070564264
 21
617.4320132268112
 31
0.0
  0
INSERT
  5
1A5
330
1A1
100
AcDbEntity
  8
AM_5
 62
     2
370
    -2
100
AcDbBlockReference
  2
_Open30
 10
1108.194070564264
 20
617.4320132268112
 30
0.0
 41
4.0
 42
4.0
 43
4.0
 50
180.0
  0
INSERT
  5
1A6
330
1A1
100
AcDbEntity
  8
AM_5
 62
     2
370
    -2
100
AcDbBlockReference
  2
_Open30
 10
1128.194070564264
 20
617.4320132268112
 30
0.0
 41
4.0
 42
4.0
 43
4.0
  0
MTEXT
  5
1A7
330
1A1
100
AcDbEntity
  8
AM_5
 62
     0
100
AcDbMText
 10
1118.194070564264
 20
621.9320132268112
 30
0.0
 40
7.0
 41
0.0
 71
     5
 72
     1
  1
\A1;20
  7
スタイル１
 73
     1
 44
1.0
  0
POINT
  5
1A8
330
1A1
100
AcDbEntity
  8
DEFPOINTS
 62
     0
100
AcDbPoint
 10
1108.194070564264
 20
566.6881208665208
 30
0.0
  0
POINT
  5
1A9
330
1A1
100
AcDbEntity
  8
DEFPOINTS
 62
     0
100
AcDbPoint
 10
1128.194070564264
 20
566.6881208665208
 30
0.0
  0
POINT
  5
1AA
330
1A1
100
AcDbEntity
  8
DEFPOINTS
 62
     0
100
AcDbPoint
 10
1128.194070564264
 20
617.4320132268112
 30
0.0
  0
ENDBLK
  5
1AC
330
1A1
100
AcDbEntity
  8
0
100
AcDbBlockEnd
  0
BLOCK
  5
1D7
330
1CD
100
AcDbEntity
  8
0
100
AcDbBlockBegin
  2
*D18
 70
     1
 10
0.0
 20
0.0
 30
0.0
  3
*D18
  1

  0
LINE
  5
1CE
330
1CD
100
AcDbEntity
  8
AM_5
 62
     2
370
    -2
100
AcDbLine
 10
1338.571882873826
 20
568.6881208665209
 30
0.0
 11
1338.571882873826
 21
619.4320132268112
 31
0.0
  0
LINE
  5
1CF
330
1CD
100
AcDbEntity
  8
AM_5
 62
     2
370
    -2
100
AcDbLine
 10
1418.571882873826
 20
488.6881208665208
 30
0.0
 11
1418.571882873826
 21
619.4320132268112
 31
0.0
  0
LINE
  5
1D0
330
1CD
100
AcDbEntity
  8
AM_5
 62
     2
370
    -2
100
AcDbLine
 10
1342.571882873826
 20
617.4320132268112
 30
0.0
 11
1414.571882873826
 21
617.4320132268112
 31
0.0
  0
INSERT
  5
1D1
330
1CD
100
AcDbEntity
  8
AM_5
 62
     2
370
    -2
100
AcDbBlockReference
  2
_Open30
 10
1338.571882873826
 20
617.4320132268112
 30
0.0
 41
4.0
 42
4.0
 43
4.0
 50
180.0
  0
INSERT
  5
1D2
330
1CD
100
AcDbEntity
  8
AM_5
 62
     2
370
    -2
100
AcDbBlockReference
  2
_Open30
 10
1418.571882873826
 20
617.4320132268112
 30
0.0
 41
4.0
 42
4.0
 43
4.0
  0
MTEXT
  5
1D3
330
1CD
100
AcDbEntity
  8
AM_5
 62
     0
100
AcDbMText
 10
1378.571882873826
 20
621.9320132268112
 30
0.0
 40
7.0
 41
0.0
 71
     5
 72
     1
  1
\A1;80
  7
スタイル１
 73
     1
 44
1.0
  0
POINT
  5
1D4
330
1CD
100
AcDbEntity
  8
DEFPOINTS
 62
     0
100
AcDbPoint
 10
1338.571882873826
 20
566.6881208665208
 30
0.0
  0
POINT
  5
1D5
330
1CD
100
AcDbEntity
  8
DEFPOINTS
 62
     0
100
AcDbPoint
 10
1418.571882873826
 20
486.6881208665208
 30
0.0
  0
POINT
  5
1D6
330
1CD
100
AcDbEntity
  8
DEFPOINTS
 62
     0
100
AcDbPoint
 10
1418.571882873826
 20
617.4320132268112
 30
0.0
  0
ENDBLK
  5
1D8
330
1CD
100
AcDbEntity
  8
0
100
AcDbBlockEnd
  0
BLOCK
  5
C5
330
BB
100
AcDbEntity
  8
0
100
AcDbBlockBegin
  2
*D19
 70
     1
 10
0.0
 20
0.0
 30
0.0
  3
*D19
  1

  0
LINE
  5
BC
330
BB
100
AcDbEntity
  8
AM_5
 62
     2
370
    -2
100
AcDbLine
 10
1340.571882873826
 20
566.6881208665208
 30
0.0
 11
1495.978882181773
 21
566.6881208665208
 31
0.0
  0
LINE
  5
BD
330
BB
100
AcDbEntity
  8
AM_5
 62
     2
370
    -2
100
AcDbLine
 10
1420.571882873826
 20
486.6881208665208
 30
0.0
 11
1495.978882181772
 21
486.6881208665208
 31
0.0
  0
LINE
  5
BE
330
BB
100
AcDbEntity
  8
AM_5
 62
     2
370
    -2
100
AcDbLine
 10
1493.978882181773
 20
562.6881208665208
 30
0.0
 11
1493.978882181773
 21
490.6881208665208
 31
0.0
  0
INSERT
  5
BF
330
BB
100
AcDbEntity
  8
AM_5
 62
     2
370
    -2
100
AcDbBlockReference
  2
_Open30
 10
1493.978882181773
 20
566.6881208665208
 30
0.0
 41
4.0
 42
4.0
 43
4.0
 50
90.0
  0
INSERT
  5
C0
330
BB
100
AcDbEntity
  8
AM_5
 62
     2
370
    -2
100
AcDbBlockReference
  2
_Open30
 10
1493.978882181773
 20
486.6881208665208
 30
0.0
 41
4.0
 42
4.0
 43
4.0
 50
270.0
  0
MTEXT
  5
C1
330
BB
100
AcDbEntity
  8
AM_5
 62
     0
100
AcDbMText
 10
1489.478882181773
 20
526.6881208665211
 30
0.0
 40
7.0
 41
0.0
 71
     5
 72
     1
  1
\A1;80
  7
スタイル１
 11
0.0000000000000001
 21
1.0
 31
0.0
 73
     1
 44
1.0
  0
POINT
  5
C2
330
BB
100
AcDbEntity
  8
DEFPOINTS
 62
     0
100
AcDbPoint
 10
1338.571882873826
 20
566.6881208665208
 30
0.0
  0
POINT
  5
C3
330
BB
100
AcDbEntity
  8
DEFPOINTS
 62
     0
100
AcDbPoint
 10
1418.571882873826
 20
486.6881208665208
 30
0.0
  0
POINT
  5
C4
330
BB
100
AcDbEntity
  8
DEFPOINTS
 62
     0
100
AcDbPoint
 10
1493.978882181773
 20
486.6881208665208
 30
0.0
  0
ENDBLK
  5
C6
330
BB
100
AcDbEntity
  8
0
100
AcDbBlockEnd
  0
BLOCK
  5
DB
330
D1
100
AcDbEntity
  8
0
100
AcDbBlockBegin
  2
*D20
 70
     1
 10
0.0
 20
0.0
 30
0.0
  3
*D20
  1

  0
LINE
  5
D2
330
D1
100
AcDbEntity
  8
AM_5
 62
     2
370
    -2
100
AcDbLine
 10
1420.571882873826
 20
486.6881208665208
 30
0.0
 11
1495.978882181772
 21
486.6881208665208
 31
0.0
  0
LINE
  5
D3
330
D1
100
AcDbEntity
  8
AM_5
 62
     2
370
    -2
100
AcDbLine
 10
1420.571882873826
 20
386.6881208665208
 30
0.0
 11
1495.978882181772
 21
386.6881208665208
 31
0.0
  0
LINE
  5
D4
330
D1
100
AcDbEntity
  8
AM_5
 62
     2
370
    -2
100
AcDbLine
 10
1493.978882181773
 20
482.6881208665208
 30
0.0
 11
1493.978882181773
 21
390.6881208665208
 31
0.0
  0
INSERT
  5
D5
330
D1
100
AcDbEntity
  8
AM_5
 62
     2
370
    -2
100
AcDbBlockReference
  2
_Open30
 10
1493.978882181773
 20
486.6881208665208
 30
0.0
 41
4.0
 42
4.0
 43
4.0
 50
90.0
  0
INSERT
  5
D6
330
D1
100
AcDbEntity
  8
AM_5
 62
     2
370
    -2
100
AcDbBlockReference
  2
_Open30
 10
1493.978882181773
 20
386.6881208665208
 30
0.0
 41
4.0
 42
4.0
 43
4.0
 50
270.0
  0
MTEXT
  5
D7
330
D1
100
AcDbEntity
  8
AM_5
 62
     0
100
AcDbMText
 10
1489.478882181773
 20
436.6881208665211
 30
0.0
 40
7.0
 41
0.0
 71
     5
 72
     1
  1
\A1;100
  7
スタイル１
 11
0.0000000000000001
 21
1.0
 31
0.0
 73
     1
 44
1.0
  0
POINT
  5
D8
330
D1
100
AcDbEntity
  8
DEFPOINTS
 62
     0
100
AcDbPoint
 10
1418.571882873826
 20
486.6881208665208
 30
0.0
  0
POINT
  5
D9
330
D1
100
AcDbEntity
  8
DEFPOINTS
 62
     0
100
AcDbPoint
 10
1418.571882873826
 20
386.6881208665208
 30
0.0
  0
POINT
  5
DA
330
D1
100
AcDbEntity
  8
DEFPOINTS
 62
     0
100
AcDbPoint
 10
1493.978882181773
 20
386.6881208665208
 30
0.0
  0
ENDBLK
  5
DC
330
D1
100
AcDbEntity
  8
0
100
AcDbBlockEnd
  0
BLOCK
  5
18F
330
185
100
AcDbEntity
  8
0
100
AcDbBlockBegin
  2
*D21
 70
     1
 10
0.0
 20
0.0
 30
0.0
  3
*D21
  1

  0
LINE
  5
186
330
185
100
AcDbEntity
  8
AM_5
 62
     2
370
    -2
100
AcDbLine
 10
1336.571882873826
 20
401.6881208665209
 30
0.0
 11
1292.654521896942
 21
401.6881208665209
 31
0.0
  0
LINE
  5
187
330
185
100
AcDbEntity
  8
AM_5
 62
     2
370
    -2
100
AcDbLine
 10
1351.571882873826
 20
386.6881208665208
 30
0.0
 11
1292.654521896942
 21
386.6881208665208
 31
0.0
  0
LINE
  5
188
330
185
100
AcDbEntity
  8
AM_5
 62
     2
370
    -2
100
AcDbLine
 10
1294.654521896942
 20
397.6881208665208
 30
0.0
 11
1294.654521896942
 21
390.6881208665208
 31
0.0
  0
INSERT
  5
189
330
185
100
AcDbEntity
  8
AM_5
 62
     2
370
    -2
100
AcDbBlockReference
  2
_Open30
 10
1294.654521896942
 20
401.6881208665209
 30
0.0
 41
4.0
 42
4.0
 43
4.0
 50
90.0
  0
INSERT
  5
18A
330
185
100
AcDbEntity
  8
AM_5
 62
     2
370
    -2
100
AcDbBlockReference
  2
_Open30
 10
1294.654521896942
 20
386.6881208665208
 30
0.0
 41
4.0
 42
4.0
 43
4.0
 50
270.0
  0
MTEXT
  5
18B
330
185
100
AcDbEntity
  8
AM_5
 62
     0
100
AcDbMText
 10
1290.154521896942
 20
394.1881208665211
 30
0.0
 40
7.0
 41
0.0
 71
     5
 72
     1
  1
\A1;15
  7
スタイル１
 11
0.0000000000000001
 21
1.0
 31
0.0
 73
     1
 44
1.0
  0
POINT
  5
18C
330
185
100
AcDbEntity
  8
DEFPOINTS
 62
     0
100
AcDbPoint
 10
1338.571882873826
 20
401.6881208665209
 30
0.0
  0
POINT
  5
18D
330
185
100
AcDbEntity
  8
DEFPOINTS
 62
     0
100
AcDbPoint
 10
1353.571882873826
 20
386.6881208665208
 30
0.0
  0
POINT
  5
18E
330
185
100
AcDbEntity
  8
DEFPOINTS
 62
     0
100
AcDbPoint
 10
1294.654521896942
 20
386.6881208665208
 30
0.0
  0
ENDBLK
  5
190
330
185
100
AcDbEntity
  8
0
100
AcDbBlockEnd
  0
BLOCK
  5
19E
330
194
100
AcDbEntity
  8
0
100
AcDbBlockBegin
  2
*D22
 70
     1
 10
0.0
 20
0.0
 30
0.0
  3
*D22
  1

  0
LINE
  5
195
330
194
100
AcDbEntity
  8
AM_5
 62
     2
370
    -2
100
AcDbLine
 10
1338.571882873826
 20
399.6881208665208
 30
0.0
 11
1338.571882873826
 21
340.6701663934291
 31
0.0
  0
LINE
  5
196
330
194
100
AcDbEntity
  8
AM_5
 62
     2
370
    -2
100
AcDbLine
 10
1353.571882873826
 20
384.6881208665208
 30
0.0
 11
1353.571882873826
 21
340.6701663934291
 31
0.0
  0
LINE
  5
197
330
194
100
AcDbEntity
  8
AM_5
 62
     2
370
    -2
100
AcDbLine
 10
1342.571882873826
 20
342.6701663934291
 30
0.0
 11
1349.571882873826
 21
342.6701663934291
 31
0.0
  0
INSERT
  5
198
330
194
100
AcDbEntity
  8
AM_5
 62
     2
370
    -2
100
AcDbBlockReference
  2
_Open30
 10
1338.571882873826
 20
342.6701663934291
 30
0.0
 41
4.0
 42
4.0
 43
4.0
 50
180.0
  0
INSERT
  5
199
330
194
100
AcDbEntity
  8
AM_5
 62
     2
370
    -2
100
AcDbBlockReference
  2
_Open30
 10
1353.571882873826
 20
342.6701663934291
 30
0.0
 41
4.0
 42
4.0
 43
4.0
  0
MTEXT
  5
19A
330
194
100
AcDbEntity
  8
AM_5
 62
     0
100
AcDbMText
 10
1346.071882873826
 20
347.1701663934291
 30
0.0
 40
7.0
 41
0.0
 71
     5
 72
     1
  1
\A1;15
  7
スタイル１
 73
     1
 44
1.0
  0
POINT
  5
19B
330
194
100
AcDbEntity
  8
DEFPOINTS
 62
     0
100
AcDbPoint
 10
1338.571882873826
 20
401.6881208665209
 30
0.0
  0
POINT
  5
19C
330
194
100
AcDbEntity
  8
DEFPOINTS
 62
     0
100
AcDbPoint
 10
1353.571882873826
 20
386.6881208665208
 30
0.0
  0
POINT
  5
19D
330
194
100
AcDbEntity
  8
DEFPOINTS
 62
     0
100
AcDbPoint
 10
1353.571882873826
 20
342.6701663934291
 30
0.0
  0
ENDBLK
  5
19F
330
194
100
AcDbEntity
  8
0
100
AcDbBlockEnd
  0
BLOCK
  5
26D
330
263
100
AcDbEntity
  8
0
100
AcDbBlockBegin
  2
*D23
 70
     1
 10
0.0
 20
0.0
 30
0.0
  3
*D23
  1

  0
ARC
  5
264
330
263
100
AcDbEntity
  8
AM_5
 62
     2
370
    -2
100
AcDbCircle
 10
1338.571882873826
 20
566.6881208665209
 30
0.0
 40
64.1247718265203
100
AcDbArc
 50
318.5745981578912
 51
356.4254018421086
  0
INSERT
  5
265
330
263
100
AcDbEntity
  8
AM_5
 62
     2
370
    -2
100
AcDbBlockReference
  2
_Open30
 10
1383.914943874398
 20
521.3450598659483
 30
0.0
 41
4.0
 42
4.0
 43
4.0
 50
226.7872990789455
  0
INSERT
  5
266
330
263
100
AcDbEntity
  8
AM_5
 62
     2
370
    -2
100
AcDbBlockReference
  2
_Open30
 10
1402.696654700346
 20
566.6881208665209
 30
0.0
 41
4.0
 42
4.0
 43
4.0
 50
88.21270092105427
  0
MTEXT
  5
267
330
263
100
AcDbEntity
  8
AM_5
 62
     0
100
AcDbMText
 10
1393.657989195004
 20
543.8707085299629
 30
0.0
 40
7.0
 41
0.0
 71
     5
 72
     1
  1
\A1;45°
  7
スタイル１
 11
0.3826834323650906
 21
0.9238795325112864
 31
0.0
 73
     1
 44
1.0
  0
POINT
  5
268
330
263
100
AcDbEntity
  8
DEFPOINTS
 62
     0
100
AcDbPoint
 10
1394.105564287473
 20
534.6257349532607
 30
0.0
  0
POINT
  5
269
330
263
100
AcDbEntity
  8
DEFPOINTS
 62
     0
100
AcDbPoint
 10
1338.571882873826
 20
566.6881208665211
 30
0.0
  0
POINT
  5
26A
330
263
100
AcDbEntity
  8
DEFPOINTS
 62
     0
100
AcDbPoint
 10
1287.975622074692
 20
566.6881208665208
 30
0.0
  0
POINT
  5
26B
330
263
100
AcDbEntity
  8
DEFPOINTS
 62
     0
100
AcDbPoint
 10
1639.207814798344
 20
566.6881208665211
 30
0.0
  0
POINT
  5
26C
330
263
100
AcDbEntity
  8
DEFPOINTS
 62
     0
100
AcDbPoint
 10
1418.571882873826
 20
486.6881208665209
 30
0.0
  0
ENDBLK
  5
26E
330
263
100
AcDbEntity
  8
0
100
AcDbBlockEnd
  0
ENDSEC
  0
SECTION
  2
ENTITIES
  0
LINE
  5
2D
330
2
100
AcDbEntity
  8
A1枠
100
AcDbLine
 10
1610.0
 20
1138.0
 30
0.0
 11
30.0
 21
1138.0
 31
0.0
  0
LWPOLYLINE
  5
2F
330
2
100
AcDbEntity
  8
補強板
100
AcDbPolyline
 90
        4
 70
     0
 43
0.0
 10
520.3103135925321
 20
825.6089378033134
 10
215.310313592532
 20
825.6089378033138
 10
215.310313592532
 20
745.6089378033139
 10
520.3103135925321
 20
745.6089378033134
  0
LWPOLYLINE
  5
31
330
2
100
AcDbEntity
  8
補強板
100
AcDbPolyline
 90
        4
 70
     0
 43
0.0
 10
520.3103135925321
 20
466.6881208665213
 10
215.310313592532
 20
466.6881208665217
 10
215.310313592532
 20
386.6881208665217
 10
520.3103135925321
 20
386.6881208665213
  0
LINE
  5
32
330
2
100
AcDbEntity
  8
A1枠
100
AcDbLine
 10
30.0
 20
31.99999999999977
 30
0.0
 11
1610.0
 21
31.99999999999977
 31
0.0
  0
DIMENSION
  5
33
330
2
100
AcDbEntity
  8
AM_5
100
AcDbDimension
  2
*D5
 10
845.3103135925339
 20
867.7044400481609
 30
0.0
 11
530.310313592533
 21
872.2044400481609
 31
0.0
  1
1260
 71
     5
 42
630.0000000000018
  3
スタイル2
100
AcDbAlignedDimension
 13
215.310313592532
 23
825.6089378033138
 33
0.0
 14
845.3103135925339
 24
825.6089378033129
 34
0.0
100
AcDbRotatedDimension
  0
DIMENSION
  5
41
330
2
100
AcDbEntity
  8
AM_5
100
AcDbDimension
  2
*D6
 10
845.3103135925339
 20
508.7836231113688
 30
0.0
 11
530.310313592533
 21
513.2836231113688
 31
0.0
  1
1260
 71
     5
 42
630.0000000000018
  3
スタイル2
100
AcDbAlignedDimension
 13
215.310313592532
 23
466.6881208665217
 33
0.0
 14
845.3103135925339
 24
466.6881208665208
 34
0.0
100
AcDbRotatedDimension
  0
LWPOLYLINE
  5
4E
330
2
100
AcDbEntity
  8
図面範囲
 62
     5
100
AcDbPolyline
 90
        4
 70
     1
 43
0.0
 10
0.0
 20
1143.08
 10
1649.12
 20
1143.08
 10
1649.12
 20
-0.0000000000002274
 10
0.0
 20
0.0
  0
LINE
  5
50
330
2
100
AcDbEntity
  8
A1枠
100
AcDbLine
 10
30.0
 20
1138.0
 30
0.0
 11
30.0
 21
31.99999999999977
 31
0.0
  0
LWPOLYLINE
  5
51
330
2
100
AcDbEntity
  8
補強板
100
AcDbPolyline
 90
        4
 70
     1
 43
0.0
 10
118.5839633567793
 20
466.6881208665217
 10
118.5839633567793
 20
386.6881208665217
 10
138.5839633567793
 20
386.6881208665217
 10
138.5839633567793
 20
466.6881208665217
  0
DIMENSION
  5
53
330
2
100
AcDbEntity
  8
AM_5
100
AcDbDimension
  2
*D7
 10
71.23354922189355
 20
466.6881208665217
 30
0.0
 11
66.73354922189348
 21
426.6881208665218
 31
0.0
 71
     5
 42
80.0
  3
スタイル2
100
AcDbAlignedDimension
 13
118.5839633567793
 23
386.6881208665217
 33
0.0
 14
118.5839633567793
 24
466.6881208665217
 34
0.0
 50
90.0
100
AcDbRotatedDimension
  0
LINE
  5
60
330
2
100
AcDbEntity
  8
A1枠
 62
     9
100
AcDbLine
 10
30.00000000000727
 20
62.0
 30
0.0
 11
270.0000000000073
 21
61.99999999999795
 31
0.0
  0
LINE
  5
61
330
2
100
AcDbEntity
  8
A1枠
 62
     9
100
AcDbLine
 10
270.0000000000073
 20
47.99999999999795
 30
0.0
 11
30.00000000000727
 21
47.99999999999795
 31
0.0
  0
MTEXT
  5
62
330
2
100
AcDbEntity
  8
A1枠
  6
Continuous
 62
     9
100
AcDbMText
 10
33.64575765150766
 20
43.27871286173149
 30
0.0
 40
5.0
 41
0.0
 71
     1
 72
     5
  1
Mark
  7
TITLE
 73
     1
 44
1.0
  0
REGION
  5
64
330
2
100
AcDbEntity
  8
A1枠
 62
     9
100
AcDbModelerGeometry
 70
     1
  1
koo mn n o          
  1
h J1410(1 nl ^ \VL kqoqm QK mk K*: R>- ng njelhemn mool 
  1
rn fqfffffffffffffffj:rooh n:rono 
  1
=0;& {rn {n {rn {rn |
  1
3*2/ {rn {rn {m {o |
  1
,7:33 {rn {rn {rn {l {rn {n |
  1
9><: {rn {rn {k {m {rn {j -:):-,:; ;0*=3: 0*+ |
  1
300/ {rn {rn {i {l |
  1
/3>1:r,*-9><: {rn koqooooooooooojkjh jlqmiiiiiiiiiiiijm o o o rn rm o o 90-(>-;@) V V V V |
  1
<0:;8: {rn {h {g {rn {f 90-(>-; {k {rn |
  1
<0:;8: {rn {g {i {rn {no 90-(>-; {k {rn |
  1
<0:;8: {rn {i {h {rn {nn 90-(>-; {k {rn |
  1
:;8: {rn {nm {nl {i {nk 90-(>-; |
  1
:;8: {rn {nl {nj {h {ni 90-(>-; |
  1
:;8: {rn {nj {nm {g {nh 90-(>-; |
  1
):-+:' {rn {f {ng |
  1
):-+:' {rn {f {nf |
  1
,+->687+r<*-): {rn llqffjjjhmooklgmh kfqhffffffffffffjj o m o o V V |
  1
):-+:' {rn {no {mo |
  1
,+->687+r<*-): {rn kiqookkkmhffjhffm kfqhffffffffffffjj o rnqoooooooooooooiok nqhlmojogohjiggkml o V V |
  1
,+->687+r<*-): {rn koqooooooooooojkjh ioqmooooooooooookj o roqfffffffffffffkihn rnqhlmojogohjigfogn o V V |
  1
/061+ {rn llqffjjjhmooklgmh kfqhffffffffffffjj o |
  1
/061+ {rn kiqookkkmhffjhffm kfqhffffffffffffjj o |
  1
/061+ {rn koqooooooooooojkjh ioqmooooooooooookj o |
  0
MTEXT
  5
65
330
2
100
AcDbEntity
  8
A1枠
  6
Continuous
 62
     9
100
AcDbMText
 10
56.80138105031801
 20
43.27871286173126
 30
0.0
 40
5.0
 41
0.0
 71
     1
 72
     5
  1
Date
  7
TITLE
 73
     1
 44
1.0
  0
LINE
  5
66
330
2
100
AcDbEntity
  8
A1枠
 62
     9
100
AcDbLine
 10
80.00000000000728
 20
61.99999999999958
 30
0.0
 11
80.00000000000728
 21
32.0
 31
0.0
  0
LINE
  5
67
330
2
100
AcDbEntity
  8
A1枠
 62
     9
100
AcDbLine
 10
50.00000000000728
 20
61.99999999999983
 30
0.0
 11
50.00000000000728
 21
32.0
 31
0.0
  0
LINE
  5
68
330
2
100
AcDbEntity
  8
A1枠
 62
     9
100
AcDbLine
 10
240.0000000000072
 20
61.99999999999821
 30
0.0
 11
240.0000000000072
 21
31.99999999999841
 31
0.0
  0
MTEXT
  5
69
330
2
100
AcDbEntity
  8
A1枠
  6
Continuous
 62
     9
100
AcDbMText
 10
110.0734626380435
 20
43.2787128617308
 30
0.0
 40
5.0
 41
0.0
 71
     1
 72
     5
  1
Revision
  7
TITLE
 73
     1
 44
1.0
  0
LINE
  5
6A
330
2
100
AcDbEntity
  8
A1枠
 62
     9
100
AcDbLine
 10
210.0000000000072
 20
61.99999999999846
 30
0.0
 11
210.0000000000072
 21
31.99999999999863
 31
0.0
  0
MTEXT
  5
6B
330
2
100
AcDbEntity
  8
A1枠
  6
Continuous
 62
     9
100
AcDbMText
 10
211.263961739085
 20
47.46680298085357
 30
0.0
 40
5.0
 41
0.0
 71
     1
 72
     5
  1
Revised\Pby
  7
TITLE
 73
     1
 44
1.0
  0
LINE
  5
6C
330
2
100
AcDbEntity
  8
A1枠
 62
     9
100
AcDbLine
 10
270.0000000000073
 20
61.99999999999795
 30
0.0
 11
270.0000000000073
 21
32.0
 31
0.0
  0
MTEXT
  5
6D
330
2
100
AcDbEntity
  8
A1枠
  6
Continuous
 62
     9
100
AcDbMText
 10
240.4947296955524
 20
48.16481729734732
 30
0.0
 40
5.0
 41
0.0
 71
     1
 72
     5
  1
Approved\Pby
  7
TITLE
 73
     1
 44
1.0
  0
DIMENSION
  5
6E
330
2
100
AcDbEntity
  8
AM_5
100
AcDbDimension
  2
*D1
 10
71.23354922189355
 20
745.6089378033139
 30
0.0
 11
66.73354922189343
 21
785.6089378033138
 31
0.0
 71
     5
 42
80.0
  3
スタイル2
100
AcDbAlignedDimension
 13
137.5839633567793
 23
825.6089378033138
 33
0.0
 14
118.5839633567793
 24
745.6089378033139
 34
0.0
 50
90.0
100
AcDbRotatedDimension
  0
DIMENSION
  5
7B
330
2
100
AcDbEntity
  8
AM_5
100
AcDbDimension
  2
*D2
 10
51.29904616768363
 20
825.6089378033138
 30
0.0
 11
93.5287382131446
 21
807.290141858939
 31
0.0
 70
   130
 71
     5
 42
0.5235987755982983
  3
スタイル2
100
AcDb2LineAngularDimension
 13
118.5839633567793
 23
814.6392826887108
 33
0.0
 14
137.5839633567793
 24
825.6089378033138
 34
0.0
 15
137.5839633567793
 25
825.6089378033138
 35
0.0
 16
90.59675182488104
 26
817.3238246619842
 36
0.0
  0
DIMENSION
  5
8B
330
2
100
AcDbEntity
  8
AM_5
100
AcDbDimension
  2
*D8
 10
138.5839633567793
 20
508.7836231113688
 30
0.0
 11
128.5839633567793
 21
513.2836231113688
 31
0.0
 71
     5
 42
20.0
  3
スタイル2
100
AcDbAlignedDimension
 13
118.5839633567793
 23
466.6881208665217
 33
0.0
 14
138.5839633567793
 24
466.6881208665217
 34
0.0
100
AcDbRotatedDimension
  0
LINE
  5
98
330
2
100
AcDbEntity
  8
補強板
100
AcDbLine
 10
118.5839633567793
 20
814.6392826887108
 30
0.0
 11
137.5839633567793
 21
825.6089378033138
 31
0.0
  0
LINE
  5
99
330
2
100
AcDbEntity
  8
補強板
100
AcDbLine
 10
138.5839633567793
 20
825.6089378033138
 30
0.0
 11
137.5839633567793
 21
825.6089378033138
 31
0.0
  0
LINE
  5
9A
330
2
100
AcDbEntity
  8
補強板
100
AcDbLine
 10
118.5839633567793
 20
745.6089378033139
 30
0.0
 11
138.5839633567793
 21
745.6089378033139
 31
0.0
  0
LINE
  5
9B
330
2
100
AcDbEntity
  8
補強板
100
AcDbLine
 10
118.5839633567793
 20
814.6392826887108
 30
0.0
 11
118.5839633567793
 21
745.6089378033139
 31
0.0
  0
LINE
  5
9C
330
2
100
AcDbEntity
  8
補強板
100
AcDbLine
 10
138.5839633567793
 20
745.6089378033139
 30
0.0
 11
138.5839633567793
 21
825.6089378033138
 31
0.0
  0
DIMENSION
  5
9D
330
2
100
AcDbEntity
  8
AM_5
100
AcDbDimension
  2
*D3
 10
137.5839633567793
 20
846.7044400481608
 30
0.0
 11
127.6423389912971
 21
851.204440048161
 31
0.0
 71
     5
  3
スタイル2
100
AcDbAlignedDimension
 13
138.5839633567793
 23
825.6089378033138
 33
0.0
 14
137.5839633567793
 24
825.6089378033138
 34
0.0
100
AcDbRotatedDimension
  0
DIMENSION
  5
AC
330
2
100
AcDbEntity
  8
AM_5
100
AcDbDimension
  2
*D4
 10
118.5839633567793
 20
867.7044400481609
 30
0.0
 11
128.5839633567793
 21
872.2044400481609
 31
0.0
 71
     5
 42
20.0
  3
スタイル2
100
AcDbAlignedDimension
 13
138.5839633567793
 23
825.6089378033138
 33
0.0
 14
118.5839633567793
 24
814.6392826887108
 34
0.0
100
AcDbRotatedDimension
  0
LINE
  5
B9
330
2
100
AcDbEntity
  8
A1枠
100
AcDbLine
 10
1610.0
 20
31.99999999999977
 30
0.0
 11
1610.0
 21
1138.0
 31
0.0
  0
DIMENSION
  5
BA
330
2
100
AcDbEntity
  8
AM_5
100
AcDbDimension
  2
*D19
 10
1493.978882181773
 20
486.6881208665208
 30
0.0
 11
1489.478882181773
 21
526.6881208665211
 31
0.0
 71
     5
 42
80.0
  3
スタイル2
100
AcDbAlignedDimension
 13
1338.571882873826
 23
566.6881208665208
 33
0.0
 14
1418.571882873826
 24
486.6881208665208
 34
0.0
 50
90.0
100
AcDbRotatedDimension
  0
LWPOLYLINE
  5
C7
330
2
100
AcDbEntity
  8
A1枠
100
AcDbPolyline
 90
        4
 70
     1
 43
0.0
 10
1431.400000000001
 20
116.0
 10
1501.400000000001
 20
116.0
 10
1501.400000000001
 20
126.0
 10
1431.400000000001
 20
126.0
  0
LWPOLYLINE
  5
C8
330
2
100
AcDbEntity
  8
A1枠
100
AcDbPolyline
 90
        4
 70
     1
 43
0.0
 10
1431.400000000001
 20
96.0
 10
1501.400000000001
 20
96.0
 10
1501.400000000001
 20
106.0
 10
1431.400000000001
 20
106.0
  0
LWPOLYLINE
  5
C9
330
2
100
AcDbEntity
  8
A1枠
100
AcDbPolyline
 90
        4
 70
     1
 43
0.0
 10
1431.400000000001
 20
106.0
 10
1501.400000000001
 20
106.0
 10
1501.400000000001
 20
116.0
 10
1431.400000000001
 20
116.0
  0
LWPOLYLINE
  5
CA
330
2
100
AcDbEntity
  8
A1枠
100
AcDbPolyline
 90
        4
 70
     1
 43
0.0
 10
1431.400000000001
 20
126.0
 10
1501.400000000001
 20
126.0
 10
1501.400000000001
 20
136.0
 10
1431.400000000001
 20
136.0
  0
SPLINE
  5
CB
330
2
100
AcDbEntity
  8
A1枠
 48
5.0
100
AcDbSpline
210
0.0
220
0.0
230
1.0
 70
    11
 71
     3
 72
    36
 73
    32
 74
    30
 42
0.0000000001
 43
0.0000000001
 44
0.0000000001
 40
0.0
 40
0.0
 40
0.0
 40
0.0
 40
1.176633266275814
 40
2.088108785627265
 40
3.613819103397875
 40
7.272256405863403
 40
9.522082853631463
 40
10.64753449260809
 40
10.99248871531971
 40
11.52184162419641
 40
12.96432560415378
 40
14.0663287250706
 40
15.20458654424834
 40
16.49325187358527
 40
18.29403844386113
 40
21.24130312645116
 40
22.81516128457049
 40
25.9908113116234
 40
28.59562481150005
 40
30.35874202560076
 40
32.64557586149688
 40
34.1417690326019
 40
35.19360717521688
 40
36.62227816644152
 40
37.07147595294868
 40
37.64208129925828
 40
38.72458773078371
 40
40.52876765775319
 40
41.61904404815998
 40
42.49998732913875
 40
43.4987487446564
 40
43.4987487446564
 40
43.4987487446564
 40
43.4987487446564
 10
1430.164657405408
 20
45.97587684671394
 30
0.0
 10
1430.437321470912
 20
46.31495601300786
 30
0.0
 10
1430.921203957515
 20
46.91670186403458
 30
0.0
 10
1432.207498187416
 20
46.5425706756423
 30
0.0
 10
1433.956437569492
 20
45.64696824886476
 30
0.0
 10
1436.007002726929
 20
44.02842449819006
 30
0.0
 10
1436.992109269145
 20
41.85173259533253
 30
0.0
 10
1435.702404589398
 20
40.16682526139972
 30
0.0
 10
1436.64233413828
 20
40.15811369681943
 30
0.0
 10
1436.222840312902
 20
39.23075577821562
 30
0.0
 10
1435.322365625419
 20
37.74017241506843
 30
0.0
 10
1436.860129030631
 20
39.03242577911548
 30
0.0
 10
1438.032674806303
 20
38.39785367040537
 30
0.0
 10
1439.067803386359
 20
39.69477175284205
 30
0.0
 10
1440.951461259083
 20
40.4743912704309
 30
0.0
 10
1441.570706973885
 20
42.74843254920152
 30
0.0
 10
1442.031915696617
 20
45.27679311448933
 30
0.0
 10
1440.861993514139
 20
47.61204196259841
 30
0.0
 10
1439.491789374517
 20
49.72355974144545
 30
0.0
 10
1437.551189929381
 20
50.95098568114217
 30
0.0
 10
1435.556688839692
 20
50.93370905494577
 30
0.0
 10
1434.184523488461
 20
50.97428746993392
 30
0.0
 10
1432.375914903035
 20
49.58214744196289
 30
0.0
 10
1434.37982482975
 20
50.74728838077684
 30
0.0
 10
1434.763887617133
 20
49.5873284218566
 30
0.0
 10
1433.756324092009
 20
49.85228201027188
 30
0.0
 10
1432.953913962982
 20
49.03123614212743
 30
0.0
 10
1431.382530583362
 20
48.94344189229173
 30
0.0
 10
1430.885348980567
 20
47.6924753779314
 30
0.0
 10
1430.114499966969
 20
46.99010238483936
 30
0.0
 10
1430.147253929993
 20
46.32778973875195
 30
0.0
 10
1430.164657405408
 20
45.97587684671394
 30
0.0
 11
1430.164657405408
 21
45.97587684671394
 31
0.0
 11
1431.065000622655
 21
46.73340436071244
 31
0.0
 11
1431.965341241304
 21
46.59136777110575
 31
0.0
 11
1433.339546164066
 21
45.92853083489294
 31
0.0
 11
1436.087958608184
 21
43.51391025743391
 31
0.0
 11
1436.419664140781
 21
41.28867083554665
 31
0.0
 11
1436.135346597755
 21
40.19972413051341
 31
0.0
 11
1436.467049531756
 21
40.10503210687143
 31
0.0
 11
1436.372278749808
 21
39.58423176026531
 31
0.0
 11
1435.80364106516
 21
38.2585578878397
 31
0.0
 11
1436.79875506435
 21
38.73201222262464
 31
0.0
 11
1437.936027835057
 21
38.68466765665994
 31
0.0
 11
1438.978529823818
 21
39.44219517065862
 31
0.0
 11
1440.447508127121
 21
40.48379730972697
 31
0.0
 11
1441.632168887397
 21
43.18249106639956
 31
0.0
 11
1441.82171564848
 21
44.74489355207402
 31
0.0
 11
1440.731828268744
 21
47.72766048795979
 31
0.0
 11
1439.168076584903
 21
49.81086332024056
 31
0.0
 11
1437.651710292029
 21
50.71042742384594
 31
0.0
 11
1435.377162152021
 21
50.94715459123832
 31
0.0
 11
1433.908183848719
 21
50.66308285788123
 31
0.0
 11
1433.05522862104
 21
50.04759048763294
 31
0.0
 11
1434.476821533368
 21
50.18962707723964
 31
0.0
 11
1434.618980304883
 21
49.76351730841939
 31
0.0
 11
1434.050342620236
 21
49.7161712965984
 31
0.0
 11
1433.05522862104
 21
49.29006297363426
 31
0.0
 11
1431.396703556653
 21
48.57988002560046
 31
0.0
 11
1430.780680481029
 21
47.6803144761388
 31
0.0
 11
1430.259430785947
 21
46.97013152810501
 31
0.0
 11
1430.164657405408
 21
45.97587684671394
 31
0.0
  0
MTEXT
  5
CC
330
2
100
AcDbEntity
  8
A1枠
 62
     3
100
AcDbMText
 10
1435.000000000002
 20
81.37999999999989
 30
0.0
 40
5.0
 41
30.0
 71
     5
 72
     5
  1
Scale
  7
表題
 73
     1
 44
1.0
  0
HATCH
  5
CD
330
2
100
AcDbEntity
  8
A1枠
100
AcDbHatch
 10
0.0
 20
0.0
 30
0.0
210
0.0
220
0.0
230
1.0
  2
SOLID
 70
     1
 71
     0
 91
        3
 92
        5
 93
        1
 72
     4
 94
        3
 73
     0
 74
     0
 95
       36
 96
       32
 40
0.0
 40
0.0
 40
0.0
 40
0.0
 40
0.5883166331382988
 40
1.044054392814925
 40
1.80690955170025
 40
3.636128202933312
 40
4.761041426817341
 40
5.32376724630582
 40
5.496244357661193
 40
5.760920812099318
 40
6.482162802078521
 40
7.033164362538165
 40
7.60229327212658
 40
8.246625936795398
 40
9.147019221933327
 40
10.62065156322797
 40
11.40758064228761
 40
12.99540565581377
 40
14.29781240575261
 40
15.17937101280218
 40
16.32278793075024
 40
17.07088451630366
 40
17.59680358761074
 40
18.31113908322397
 40
18.53573797647749
 40
18.82104064963364
 40
19.36229386539549
 40
20.26438382887941
 40
20.80952202408279
 40
21.24999366457222
 40
21.74937437233119
 40
21.74937437233119
 40
21.74937437233119
 40
21.74937437233119
 10
1430.164657405408
 20
45.97587684671394
 10
1430.43732147091
 20
46.31495601300771
 10
1430.921203957514
 20
46.91670186403476
 10
1432.207498187415
 20
46.54257067564281
 10
1433.956437569495
 20
45.64696824886428
 10
1436.00700272693
 20
44.02842449819086
 10
1436.992109269149
 20
41.85173259533199
 10
1435.702404589397
 20
40.16682526140043
 10
1436.642334138277
 20
40.15811369681919
 10
1436.222840312908
 20
39.2307557782145
 10
1435.322365625414
 20
37.7401724150684
 10
1436.86012903063
 20
39.03242577911492
 10
1438.032674806305
 20
38.39785367040581
 10
1439.067803386358
 20
39.69477175284168
 10
1440.951461259083
 20
40.47439127043067
 10
1441.570706973883
 20
42.74843254920174
 10
1442.031915696612
 20
45.27679311448896
 10
1440.861993514139
 20
47.61204196259982
 10
1439.491789374513
 20
49.72355974144425
 10
1437.551189929376
 20
50.95098568114277
 10
1435.556688839691
 20
50.93370905494535
 10
1434.18452348846
 20
50.9742874699346
 10
1432.375914903033
 20
49.58214744196244
 10
1434.37982482975
 20
50.74728838077767
 10
1434.763887617133
 20
49.58732842185541
 10
1433.756324092006
 20
49.85228201027253
 10
1432.953913962983
 20
49.03123614212759
 10
1431.382530583365
 20
48.94344189229137
 10
1430.885348980567
 20
47.6924753779314
 10
1430.11449996697
 20
46.99010238483929
 10
1430.147253929992
 20
46.32778973875188
 10
1430.164657405408
 20
45.97587684671394
 97
        0
 92
        7
 72
     1
 73
     1
 93
        2
 10
1427.491896516316
 20
41.71478060436697
 42
1.0
 10
1434.164240424878
 20
41.71478060436697
 42
1.0
 97
        0
 92
        5
 93
        1
 72
     4
 94
        3
 73
     0
 74
     0
 95
       41
 96
       37
 40
0.0
 40
0.0
 40
0.0
 40
0.0
 40
0.7582974158655653
 40
0.9306492898365002
 40
1.501039628747242
 40
1.852994756812246
 40
2.352376184237327
 40
2.71989720717723
 40
3.313609934625834
 40
3.881756293052878
 40
4.136909751011256
 40
4.730542777628725
 40
5.157636486979217
 40
5.443717701716619
 40
5.765725874223739
 40
6.148455927017043
 40
6.523046154425332
 40
7.092627838797694
 40
7.587320207969541
 40
7.782690675215876
 40
8.124195500635968
 40
8.60001591523784
 40
8.855009533669605
 40
9.321645285438874
 40
9.915277966111492
 40
10.5203439637128
 40
10.95500762142157
 40
11.12581724692269
 40
11.49333826986259
 40
11.99271969728756
 40
12.37222375185835
 40
12.67996993698242
 40
12.87086566202081
 40
13.13126583532389
 40
13.38739373323697
 40
13.48208503395095
 40
13.48208503395095
 40
13.48208503395095
 40
13.48208503395095
 10
1424.573061735225
 20
44.98162071946658
 10
1424.056521308528
 20
44.74684294873236
 10
1423.422577461145
 20
44.45870301704903
 10
1423.286727717124
 20
43.40464742331891
 10
1422.390480217476
 20
43.15967688216074
 10
1422.149602529356
 20
42.17635354831105
 10
1422.187363010725
 20
41.37193878884841
 10
1421.813823048807
 20
40.42704363020635
 10
1421.942430677196
 20
39.49335841932857
 10
1421.501435782547
 20
38.24108121238364
 10
1422.580586991094
 20
38.05168524919695
 10
1423.148367201261
 20
37.41948682154666
 10
1424.178591605341
 20
37.39296708912856
 10
1424.415200891498
 20
36.67116839374353
 10
1424.468858167118
 20
35.9798343276459
 10
1425.315848216076
 20
35.65561033982753
 10
1426.093842330399
 20
36.24094065019794
 10
1427.084069930377
 20
35.69828560763031
 10
1427.739936200849
 20
35.35486581049076
 10
1428.674049717969
 20
35.49414012654065
 10
1427.734223925615
 20
36.17367905779989
 10
1428.042105079112
 20
36.87153706427902
 10
1427.736508312938
 20
37.69846837027521
 10
1426.779441349344
 20
37.85815460844383
 10
1425.755303843772
 20
38.36084435174648
 10
1425.251741442791
 20
39.35695004555924
 10
1425.006642800237
 20
40.19376639192883
 10
1424.363037525299
 20
40.46383907092308
 10
1424.299242374129
 20
41.27292596629609
 10
1424.452851317204
 20
42.05688021216042
 10
1424.445521425294
 20
42.8392476954557
 10
1424.57925886275
 20
43.46791799197995
 10
1424.220219448996
 20
43.86080963292075
 10
1424.197904788581
 20
44.40653679346083
 10
1424.602196115925
 20
44.67456441589034
 10
1424.579254119931
 20
44.91635725020802
 10
1424.573061735225
 20
44.98162071946658
 97
        0
 75
     0
 76
     1
 47
1.666295372170839
 98
        3
 10
1437.088961189443
 20
46.64275605922425
 10
1432.087412270584
 20
42.31038776727596
 10
1423.751503070152
 20
39.97757454651851
  0
CIRCLE
  5
CE
330
2
100
AcDbEntity
  8
A1枠
 48
5.0
100
AcDbCircle
 10
1430.828068470597
 20
41.71478060436697
 30
0.0
 40
3.336171954282153
  0
MTEXT
  5
CF
330
2
100
AcDbEntity
  8
A1枠
 62
     3
100
AcDbMText
 10
1435.000000000002
 20
65.37999999999988
 30
0.0
 40
5.0
 41
30.0
 71
     5
 72
     5
  1
1/2
  7
表題
 73
     1
 44
1.0
  0
DIMENSION
  5
D0
330
2
100
AcDbEntity
  8
AM_5
100
AcDbDimension
  2
*D20
 10
1493.978882181773
 20
386.6881208665208
 30
0.0
 11
1489.478882181773
 21
436.6881208665211
 31
0.0
 71
     5
 42
100.0
  3
スタイル2
100
AcDbAlignedDimension
 13
1418.571882873826
 23
486.6881208665208
 33
0.0
 14
1418.571882873826
 24
386.6881208665208
 34
0.0
 50
90.0
100
AcDbRotatedDimension
1001
ACAD
1000
DSTYLE
1002
{
1070
   279
1070
     1
1002
}
  0
LINE
  5
DD
330
2
100
AcDbEntity
  8
A1枠
100
AcDbLine
 10
1281.400000000001
 20
54.0
 30
0.0
 11
1610.0
 21
53.99999999999977
 31
0.0
  0
LINE
  5
DE
330
2
100
AcDbEntity
  8
A1枠
100
AcDbLine
 10
1610.0
 20
75.99999999999977
 30
0.0
 11
1281.400000000001
 21
76.0
 31
0.0
  0
LINE
  5
DF
330
2
100
AcDbEntity
  8
A1枠
100
AcDbLine
 10
1281.400000000001
 20
86.0
 30
0.0
 11
1610.0
 21
85.99999999999978
 31
0.0
  0
LINE
  5
E0
330
2
100
AcDbEntity
  8
A1枠
100
AcDbLine
 10
1281.400000000001
 20
32.0
 30
0.0
 11
1610.0
 21
31.99999999999977
 31
0.0
  0
LINE
  5
E1
330
2
100
AcDbEntity
  8
細線
100
AcDbLine
 10
540.3103135925321
 20
424.1881208665213
 30
0.0
 11
540.3103135925321
 21
382.6881208665213
 31
0.0
  0
LINE
  5
E3
330
2
100
AcDbEntity
  8
細線
100
AcDbLine
 10
520.3103135925321
 20
424.1881208665213
 30
0.0
 11
520.3103135925321
 21
382.6881208665213
 31
0.0
  0
LWPOLYLINE
  5
E4
330
2
100
AcDbEntity
  8
補強板
100
AcDbPolyline
 90
        4
 70
     0
 43
0.0
 10
540.3103135925321
 20
386.6881208665213
 10
845.3103135925339
 20
386.6881208665208
 10
845.3103135925339
 20
466.6881208665208
 10
540.3103135925321
 20
466.6881208665213
  0
MTEXT
  5
E5
330
2
100
AcDbEntity
  8
細線
100
AcDbMText
 10
540.8777879780481
 20
247.2956364542451
 30
0.0
 40
9.0
 41
0.0
 71
     8
 72
     5
  1
4-2 Supporting Plate-2
  7
表題
 73
     1
 44
1.0
  0
LINE
  5
E6
330
2
100
AcDbEntity
  8
細線
100
AcDbLine
 10
463.1406823292527
 20
245.0869185318006
 30
0.0
 11
626.8730362247679
 21
245.0869185318006
 31
0.0
  0
LWPOLYLINE
  5
E7
330
2
100
AcDbEntity
  8
補強板
100
AcDbPolyline
 90
        4
 70
     0
 43
0.0
 10
540.3103135925321
 20
745.6089378033134
 10
845.3103135925339
 20
745.6089378033129
 10
845.3103135925339
 20
825.6089378033129
 10
540.3103135925321
 20
825.6089378033134
  0
LINE
  5
E8
330
2
100
AcDbEntity
  8
細線
100
AcDbLine
 10
462.3095588070491
 20
679.9606772170736
 30
0.0
 11
616.8994893090803
 21
679.9606772170736
 31
0.0
  0
LWPOLYLINE
  5
E9
330
2
100
AcDbEntity
  8
細線
100
AcDbPolyline
 90
        4
 70
     0
 43
0.0
 10
540.3103135925321
 20
429.1881208665213
 10
537.8103135925321
 20
426.6881208665213
 10
542.810313592532
 20
426.6881208665213
 10
540.3103135925321
 20
424.1881208665213
  0
LWPOLYLINE
  5
EA
330
2
100
AcDbEntity
  8
細線
100
AcDbPolyline
 90
        4
 70
     0
 43
0.0
 10
520.3103135925321
 20
429.1881208665213
 10
517.810313592532
 20
426.6881208665213
 10
522.8103135925321
 20
426.6881208665213
 10
520.3103135925321
 20
424.1881208665213
  0
LINE
  5
EB
330
2
100
AcDbEntity
  8
細線
100
AcDbLine
 10
540.3103135925321
 20
470.6881208665213
 30
0.0
 11
540.3103135925321
 21
429.1881208665213
 31
0.0
  0
LINE
  5
EC
330
2
100
AcDbEntity
  8
細線
100
AcDbLine
 10
520.3103135925321
 20
470.6881208665213
 30
0.0
 11
520.3103135925321
 21
429.1881208665213
 31
0.0
  0
MTEXT
  5
ED
330
2
100
AcDbEntity
  8
細線
100
AcDbMText
 10
540.8777879780481
 20
682.1693951395181
 30
0.0
 40
9.0
 41
0.0
 71
     8
 72
     5
  1
4-1 Supporting Plate-1
  7
表題
 73
     1
 44
1.0
  0
LWPOLYLINE
  5
EE
330
2
100
AcDbEntity
  8
細線
100
AcDbPolyline
 90
        4
 70
     0
 43
0.0
 10
520.3103135925321
 20
788.1089378033134
 10
517.810313592532
 20
785.6089378033134
 10
522.8103135925321
 20
785.6089378033134
 10
520.3103135925321
 20
783.1089378033134
  0
LWPOLYLINE
  5
EF
330
2
100
AcDbEntity
  8
細線
100
AcDbPolyline
 90
        4
 70
     0
 43
0.0
 10
540.3103135925321
 20
788.1089378033134
 10
537.8103135925321
 20
785.6089378033134
 10
542.810313592532
 20
785.6089378033134
 10
540.3103135925321
 20
783.1089378033134
  0
LINE
  5
F0
330
2
100
AcDbEntity
  8
細線
100
AcDbLine
 10
520.3103135925321
 20
829.6089378033133
 30
0.0
 11
520.3103135925321
 21
788.1089378033134
 31
0.0
  0
LINE
  5
F1
330
2
100
AcDbEntity
  8
細線
100
AcDbLine
 10
540.3103135925321
 20
829.6089378033133
 30
0.0
 11
540.3103135925321
 21
788.1089378033134
 31
0.0
  0
LINE
  5
F2
330
2
100
AcDbEntity
  8
細線
100
AcDbLine
 10
520.3103135925321
 20
783.1089378033134
 30
0.0
 11
520.3103135925321
 21
741.6089378033134
 31
0.0
  0
LINE
  5
F3
330
2
100
AcDbEntity
  8
細線
100
AcDbLine
 10
540.3103135925321
 20
783.1089378033134
 30
0.0
 11
540.3103135925321
 21
741.6089378033134
 31
0.0
  0
LINE
  5
F4
330
2
100
AcDbEntity
  8
補強板
100
AcDbLine
 10
1418.571882873828
 20
386.6881208665208
 30
0.0
 11
1418.571882873826
 21
486.6881208665208
 31
0.0
  0
LINE
  5
F5
330
2
100
AcDbEntity
  8
補強板
100
AcDbLine
 10
1338.571882873826
 20
566.6881208665208
 30
0.0
 11
1338.571882873826
 21
401.6881208665209
 31
0.0
  0
LWPOLYLINE
  5
F6
330
2
100
AcDbEntity
  8
補強板
100
AcDbPolyline
 90
        4
 70
     1
 43
0.0
 10
1108.194070564264
 20
386.6881208665208
 10
1128.194070564264
 20
386.6881208665208
 10
1128.194070564264
 20
566.6881208665208
 10
1108.194070564264
 20
566.6881208665208
  0
DIMENSION
  5
F7
330
2
100
AcDbEntity
  8
AM_5
100
AcDbDimension
  2
*D16
 10
1052.766834982607
 20
386.6881208665208
 30
0.0
 11
1048.266834982607
 21
476.688120866521
 31
0.0
 71
     5
 42
180.0
  3
スタイル2
100
AcDbAlignedDimension
 13
1108.194070564264
 23
566.6881208665208
 33
0.0
 14
1108.194070564264
 24
386.6881208665208
 34
0.0
 50
90.0
100
AcDbRotatedDimension
  0
LINE
  5
104
330
2
100
AcDbEntity
  8
補強板
100
AcDbLine
 10
1108.194070564264
 20
401.6881208665209
 30
0.0
 11
1128.194070564264
 21
401.6881208665209
 31
0.0
  0
MTEXT
  5
105
330
2
100
AcDbEntity
  8
A1枠
 62
     3
100
AcDbMText
 10
1289.921245092784
 20
42.99999999999977
 30
0.0
 40
7.0
 41
0.0
 71
     4
 72
     5
  1
大陽東洋酸素株式会社
  7
大陽東洋酸素
 73
     1
 44
1.0
  0
MTEXT
  5
107
330
2
100
AcDbEntity
  8
A1枠
 62
     3
100
AcDbMText
 10
1294.400000000001
 20
80.99999999999996
 30
0.0
 40
3.0
 41
26.0
 71
     5
 72
     5
  1
Approved by
  7
表題
 73
     1
 44
1.0
  0
LWPOLYLINE
  5
108
330
2
100
AcDbEntity
  8
A1枠
100
AcDbPolyline
 90
        4
 70
     1
 43
0.0
 10
1281.400000000001
 20
96.0
 10
1301.400000000001
 20
96.0
 10
1301.400000000001
 20
106.0
 10
1281.400000000001
 20
106.0
  0
LWPOLYLINE
  5
109
330
2
100
AcDbEntity
  8
A1枠
100
AcDbPolyline
 90
        4
 70
     1
 43
0.0
 10
1281.400000000001
 20
116.0
 10
1301.400000000001
 20
116.0
 10
1301.400000000001
 20
126.0
 10
1281.400000000001
 20
126.0
  0
LWPOLYLINE
  5
10A
330
2
100
AcDbEntity
  8
A1枠
100
AcDbPolyline
 90
        4
 70
     1
 43
0.0
 10
1281.400000000001
 20
106.0
 10
1301.400000000001
 20
106.0
 10
1301.400000000001
 20
116.0
 10
1281.400000000001
 20
116.0
  0
LWPOLYLINE
  5
10B
330
2
100
AcDbEntity
  8
A1枠
100
AcDbPolyline
 90
        4
 70
     1
 43
0.0
 10
1281.400000000001
 20
126.0
 10
1301.400000000001
 20
126.0
 10
1301.400000000001
 20
136.0
 10
1281.400000000001
 20
136.0
  0
MTEXT
  5
10C
330
2
100
AcDbEntity
  8
A1枠
 62
     3
100
AcDbMText
 10
1293.052796859086
 20
64.92519912548428
 30
0.0
 40
4.0
 41
0.0
 71
     5
 72
     5
  1
Kamioka
  7
表題
 73
     1
 44
1.0
  0
LINE
  5
10D
330
2
100
AcDbEntity
  8
A1枠
100
AcDbLine
 10
1281.400000000001
 20
32.0
 30
0.0
 11
1281.400000000001
 21
86.0
 31
0.0
  0
LINE
  5
10E
330
2
100
AcDbEntity
  8
A1枠
100
AcDbLine
 10
1281.400000000001
 20
96.0
 30
0.0
 11
1281.400000000001
 21
86.0
 31
0.0
  0
ATTDEF
  5
10F
330
2
100
AcDbEntity
  8
A1枠
100
AcDbText
 10
1284.234285714287
 20
118.0
 30
0.0
 40
6.0
  1

  7
表題
 72
     2
 11
1297.400000000001
 21
121.0
 31
0.0
100
AcDbAttributeDefinition
  3
品番
  2
4-3
 70
     0
 74
     2
  0
ATTDEF
  5
110
330
2
100
AcDbEntity
  8
A1枠
100
AcDbText
 10
1284.234285714287
 20
108.0
 30
0.0
 40
6.0
  1

  7
表題
 72
     2
 11
1297.400000000001
 21
111.0
 31
0.0
100
AcDbAttributeDefinition
  3
品番
  2
4-2
 70
     0
 74
     2
  0
ATTDEF
  5
111
330
2
100
AcDbEntity
  8
A1枠
100
AcDbText
 10
1284.234285714287
 20
98.00000000000006
 30
0.0
 40
6.0
  1

  7
表題
 72
     2
 11
1297.400000000001
 21
101.0
 31
0.0
100
AcDbAttributeDefinition
  3
品番
  2
4-1
 70
     0
 74
     2
  0
ATTDEF
  5
112
330
2
100
AcDbEntity
  8
A1枠
100
AcDbText
 10
1284.234285714287
 20
128.0
 30
0.0
 40
6.0
  1

  7
表題
 72
     2
 11
1297.400000000001
 21
131.0
 31
0.0
100
AcDbAttributeDefinition
  3
品番
  2
4-4
 70
     0
 74
     2
  0
MTEXT
  5
113
330
2
100
AcDbEntity
  8
A1枠
 62
     3
100
AcDbMText
 10
1291.400000000001
 20
90.99999999999996
 30
0.0
 40
5.0
 41
20.0
 71
     5
 72
     5
  1
No.
  7
表題
 73
     1
 44
1.0
  0
LINE
  5
114
330
2
100
AcDbEntity
  8
A1枠
100
AcDbLine
 10
1420.0
 20
85.99999999999978
 30
0.0
 11
1420.0
 21
53.99999999999977
 31
0.0
  0
SPLINE
  5
115
330
2
100
AcDbEntity
  8
A1枠
 48
5.0
100
AcDbSpline
210
0.0
220
0.0
230
1.0
 70
    11
 71
     3
 72
    41
 73
    37
 74
    35
 42
0.0000000001
 43
0.0000000001
 44
0.0000000001
 40
0.0
 40
0.0
 40
0.0
 40
0.0
 40
1.516594831733261
 40
1.861298579675172
 40
3.00207925749669
 40
3.705989513626651
 40
4.704752368477117
 40
5.439794414355604
 40
6.627219869252867
 40
7.763512586107088
 40
8.273819502025501
 40
9.46108555525882
 40
10.3152729739624
 40
10.88743540343608
 40
11.5314517484512
 40
12.29691185403525
 40
13.0460923088518
 40
14.18525567759648
 40
15.17464041594369
 40
15.56538135043106
 40
16.24839100126818
 40
17.2000318304721
 40
17.7100190673358
 40
18.64329057087595
 40
19.83055593222123
 40
21.0406879274234
 40
21.91001524284231
 40
22.25163449384149
 40
22.98667653972168
 40
23.98543939457179
 40
24.7444475037134
 40
25.35993987396151
 40
25.74173132403787
 40
26.262531670644
 40
26.77478746647019
 40
26.96417006789823
 40
26.96417006789823
 40
26.96417006789823
 40
26.96417006789823
 10
1424.573061735225
 20
44.98162071946658
 30
0.0
 10
1424.056521308528
 20
44.7468429487327
 30
0.0
 10
1423.422577461142
 20
44.4587030170498
 30
0.0
 10
1423.286727717127
 20
43.40464742331894
 30
0.0
 10
1422.390480217472
 20
43.15967688216078
 30
0.0
 10
1422.149602529357
 20
42.17635354831079
 30
0.0
 10
1422.187363010717
 20
41.37193878884967
 30
0.0
 10
1421.813823048814
 20
40.42704363020499
 30
0.0
 10
1421.942430677195
 20
39.49335841932912
 30
0.0
 10
1421.501435782545
 20
38.24108121238257
 30
0.0
 10
1422.580586991095
 20
38.05168524919826
 30
0.0
 10
1423.148367201262
 20
37.41948682154498
 30
0.0
 10
1424.178591605344
 20
37.39296708913048
 30
0.0
 10
1424.415200891495
 20
36.67116839374218
 30
0.0
 10
1424.468858167123
 20
35.9798343276474
 30
0.0
 10
1425.315848216075
 20
35.6556103398273
 30
0.0
 10
1426.093842330398
 20
36.24094065019806
 30
0.0
 10
1427.084069930375
 20
35.69828560762999
 30
0.0
 10
1427.73993620085
 20
35.35486581048992
 30
0.0
 10
1428.674049717966
 20
35.49414012654185
 30
0.0
 10
1427.734223925618
 20
36.17367905780222
 30
0.0
 10
1428.042105079114
 20
36.8715370642786
 30
0.0
 10
1427.736508312943
 20
37.69846837027578
 30
0.0
 10
1426.779441349346
 20
37.85815460844318
 30
0.0
 10
1425.75530384377
 20
38.36084435174602
 30
0.0
 10
1425.251741442794
 20
39.35695004556126
 30
0.0
 10
1425.006642800235
 20
40.19376639192628
 30
0.0
 10
1424.363037525299
 20
40.46383907092563
 30
0.0
 10
1424.299242374127
 20
41.27292596629526
 30
0.0
 10
1424.452851317207
 20
42.05688021216031
 30
0.0
 10
1424.445521425299
 20
42.83924769545571
 30
0.0
 10
1424.579258862756
 20
43.46791799197958
 30
0.0
 10
1424.220219448999
 20
43.86080963292108
 30
0.0
 10
1424.197904788587
 20
44.40653679346083
 30
0.0
 10
1424.60219611593
 20
44.67456441589029
 30
0.0
 10
1424.579254119935
 20
44.91635725020811
 30
0.0
 10
1424.573061735225
 20
44.98162071946658
 30
0.0
 11
1424.573061735225
 21
44.98162071946658
 31
0.0
 11
1423.388400974947
 21
44.03471060404021
 31
0.0
 11
1423.293627594406
 21
43.70329141300549
 31
0.0
 11
1422.440672366727
 21
42.9457638990068
 31
0.0
 11
1422.203740214672
 21
42.28292696279418
 31
0.0
 11
1422.108966834128
 21
41.28867083554665
 31
0.0
 11
1421.919422671646
 21
40.57848788751266
 31
0.0
 11
1421.824649291103
 21
39.39485060469392
 31
0.0
 11
1421.824649291103
 21
38.2585578878397
 31
0.0
 11
1422.298513595214
 21
38.06917528641184
 31
0.0
 11
1423.341015583973
 21
37.50102892798472
 31
0.0
 11
1424.146582822088
 21
37.21695574877116
 31
0.0
 11
1424.38351497414
 21
36.69615540216523
 31
0.0
 11
1424.573061735225
 21
36.08066447777324
 31
0.0
 11
1425.283858191387
 21
35.79659129855986
 31
0.0
 11
1425.994654647553
 21
36.03331846595224
 31
0.0
 11
1427.084542027287
 21
35.70189927491769
 31
0.0
 11
1428.032268036915
 21
35.41782609570414
 31
0.0
 11
1428.411361559074
 21
35.51251811934612
 31
0.0
 11
1428.032268036915
 21
36.08066447777324
 31
0.0
 11
1427.937497254966
 21
37.02757459319959
 31
0.0
 11
1427.747950493883
 21
37.50102892798472
 31
0.0
 11
1426.894995266204
 21
37.87979413084026
 31
0.0
 11
1425.852493277443
 21
38.44793904341127
 31
0.0
 11
1425.23647020182
 21
39.48954118247962
 31
0.0
 11
1424.809993887274
 21
40.2470686964783
 31
0.0
 11
1424.525673745656
 21
40.43645129790598
 31
0.0
 11
1424.336129583167
 21
41.14663424593977
 31
0.0
 11
1424.430902963709
 21
42.14089037318713
 31
0.0
 11
1424.478288354683
 21
42.89841788718582
 31
0.0
 11
1424.478288354683
 21
43.51391025743391
 31
0.0
 11
1424.288744192197
 21
43.84532800261218
 31
0.0
 11
1424.288744192197
 21
44.3661283492183
 31
0.0
 11
1424.573061735225
 21
44.79223811803854
 31
0.0
 11
1424.573061735225
 21
44.98162071946658
 31
0.0
  0
LINE
  5
116
330
2
100
AcDbEntity
  8
A1枠
100
AcDbLine
 10
1431.400000000001
 20
86.0
 30
0.0
 11
1431.400000000001
 21
96.0
 31
0.0
  0
LWPOLYLINE
  5
117
330
2
100
AcDbEntity
  8
A1枠
100
AcDbPolyline
 90
        4
 70
     1
 43
0.0
 10
1301.400000000001
 20
116.0
 10
1381.400000000001
 20
116.0
 10
1381.400000000001
 20
126.0
 10
1301.400000000001
 20
126.0
  0
LWPOLYLINE
  5
118
330
2
100
AcDbEntity
  8
A1枠
100
AcDbPolyline
 90
        4
 70
     1
 43
0.0
 10
1301.400000000001
 20
96.0
 10
1381.400000000001
 20
96.0
 10
1381.400000000001
 20
106.0
 10
1301.400000000001
 20
106.0
  0
LWPOLYLINE
  5
119
330
2
100
AcDbEntity
  8
A1枠
100
AcDbPolyline
 90
        4
 70
     1
 43
0.0
 10
1301.400000000001
 20
106.0
 10
1381.400000000001
 20
106.0
 10
1381.400000000001
 20
116.0
 10
1301.400000000001
 20
116.0
  0
LWPOLYLINE
  5
11A
330
2
100
AcDbEntity
  8
A1枠
100
AcDbPolyline
 90
        4
 70
     1
 43
0.0
 10
1301.400000000001
 20
126.0
 10
1381.400000000001
 20
126.0
 10
1381.400000000001
 20
136.0
 10
1301.400000000001
 20
136.0
  0
ATTDEF
  5
11B
330
2
100
AcDbEntity
  8
A1枠
100
AcDbText
 10
1304.751266474959
 20
118.0
 30
0.0
 40
6.0
  1

  7
表題
 11
1304.751266474959
 21
121.0
 31
0.0
100
AcDbAttributeDefinition
  3
部品名称
  2
SUPPORT_PLATE-3
 70
     0
 74
     2
  0
ATTDEF
  5
11C
330
2
100
AcDbEntity
  8
A1枠
100
AcDbText
 10
1304.751266474959
 20
108.0
 30
0.0
 40
6.0
  1

  7
表題
 11
1304.751266474959
 21
111.0
 31
0.0
100
AcDbAttributeDefinition
  3
部品名称
  2
SUPPORT_PLATE-2
 70
     0
 74
     2
  0
ATTDEF
  5
11D
330
2
100
AcDbEntity
  8
A1枠
100
AcDbText
 10
1304.751266474959
 20
98.00000000000006
 30
0.0
 40
6.0
  1

  7
表題
 11
1304.751266474959
 21
101.0
 31
0.0
100
AcDbAttributeDefinition
  3
部品名称
  2
SUPPORT_PLATE-1
 70
     0
 74
     2
  0
ATTDEF
  5
11E
330
2
100
AcDbEntity
  8
A1枠
100
AcDbText
 10
1304.751266474959
 20
128.0
 30
0.0
 40
6.0
  1

  7
表題
 11
1304.751266474959
 21
131.0
 31
0.0
100
AcDbAttributeDefinition
  3
部品名称
  2
SUPPORT_PLATE-4
 70
     0
 74
     2
  0
LINE
  5
11F
330
2
100
AcDbEntity
  8
A1枠
100
AcDbLine
 10
1301.400000000001
 20
86.0
 30
0.0
 11
1301.400000000001
 21
96.0
 31
0.0
  0
MTEXT
  5
120
330
2
100
AcDbEntity
  8
A1枠
 62
     3
100
AcDbMText
 10
1407.000000000001
 20
80.99999999999978
 30
0.0
 40
5.0
 41
26.0
 71
     5
 72
     5
  1
Drawing
  7
表題
 73
     1
 44
1.0
  0
MTEXT
  5
121
330
2
100
AcDbEntity
  8
A1枠
 62
     3
100
AcDbMText
 10
1381.000000000002
 20
80.99999999999978
 30
0.0
 40
5.0
 41
26.0
 71
     5
 72
     5
  1
Design
  7
表題
 73
     1
 44
1.0
  0
LINE
  5
122
330
2
100
AcDbEntity
  8
A1枠
100
AcDbLine
 10
1394.0
 20
85.99999999999978
 30
0.0
 11
1394.0
 21
53.99999999999977
 31
0.0
  0
LINE
  5
123
330
2
100
AcDbEntity
  8
A1枠
100
AcDbLine
 10
1368.0
 20
85.99999999999978
 30
0.0
 11
1368.0
 21
53.99999999999977
 31
0.0
  0
MTEXT
  5
124
330
2
100
AcDbEntity
  8
A1枠
 62
     3
100
AcDbMText
 10
1337.000000000001
 20
80.99999999999996
 30
0.0
 40
5.0
 41
62.0
 71
     5
 72
     5
  1
Judge
  7
表題
 73
     1
 44
1.0
  0
LINE
  5
125
330
2
100
AcDbEntity
  8
A1枠
100
AcDbLine
 10
1306.0
 20
86.0
 30
0.0
 11
1306.0
 21
54.0
 31
0.0
  0
ARC
  5
126
330
2
100
AcDbEntity
  8
A1枠
100
AcDbCircle
 10
1407.838925359101
 20
43.60796812476087
 30
0.0
 40
1.75
100
AcDbArc
 50
21.80140948635242
 51
90.0
  0
LINE
  5
127
330
2
100
AcDbEntity
  8
A1枠
100
AcDbLine
 10
1409.463759568152
 20
44.25790180838044
 30
0.0
 11
1411.383706515047
 21
39.45803444114108
 31
0.0
  0
ARC
  5
128
330
2
100
AcDbEntity
  8
A1枠
100
AcDbCircle
 10
1408.538925359102
 20
45.00796812476074
 30
0.0
 40
1.75
100
AcDbArc
 50
21.80140948635242
 51
90.0
  0
MTEXT
  5
129
330
2
100
AcDbEntity
  8
A1枠
 62
     3
100
AcDbMText
 10
1405.652796859087
 20
64.92519912548409
 30
0.0
 40
4.0
 41
0.0
 71
     5
 72
     5
  1
Sudo
  7
表題
 73
     1
 44
1.0
  0
LINE
  5
12A
330
2
100
AcDbEntity
  8
A1枠
100
AcDbLine
 10
1406.2989253591
 20
38.35796812476087
 30
0.0
 11
1406.2989253591
 21
46.75796812476074
 31
0.0
  0
LINE
  5
12B
330
2
100
AcDbEntity
  8
A1枠
100
AcDbLine
 10
1407.698925359102
 20
38.35796812476087
 30
0.0
 11
1407.698925359102
 21
45.35796812476087
 31
0.0
  0
LINE
  5
12C
330
2
100
AcDbEntity
  8
A1枠
100
AcDbLine
 10
1407.698925359102
 20
38.35796812476087
 30
0.0
 11
1406.2989253591
 21
38.35796812476087
 31
0.0
  0
LINE
  5
12D
330
2
100
AcDbEntity
  8
A1枠
100
AcDbLine
 10
1405.598925359103
 20
38.35796812476087
 30
0.0
 11
1405.598925359103
 21
45.00796812476074
 31
0.0
  0
LINE
  5
12E
330
2
100
AcDbEntity
  8
A1枠
100
AcDbLine
 10
1406.2989253591
 20
46.75796812476074
 30
0.0
 11
1408.538925359102
 21
46.75796812476074
 31
0.0
  0
LINE
  5
12F
330
2
100
AcDbEntity
  8
A1枠
100
AcDbLine
 10
1407.698925359102
 20
45.35796812476087
 30
0.0
 11
1407.838925359101
 21
45.35796812476087
 31
0.0
  0
LINE
  5
130
330
2
100
AcDbEntity
  8
A1枠
100
AcDbLine
 10
1404.198925359102
 20
44.30796812476069
 30
0.0
 11
1404.198925359102
 21
43.60796812476087
 31
0.0
  0
LINE
  5
131
330
2
100
AcDbEntity
  8
A1枠
100
AcDbLine
 10
1399.2989253591
 20
40.80796812476068
 30
0.0
 11
1399.2989253591
 21
41.15796812476083
 31
0.0
  0
LINE
  5
132
330
2
100
AcDbEntity
  8
A1枠
100
AcDbLine
 10
1403.148925359102
 20
39.75796812476073
 30
0.0
 11
1400.348925359103
 21
39.75796812476073
 31
0.0
  0
LINE
  5
133
330
2
100
AcDbEntity
  8
A1枠
100
AcDbLine
 10
1400.348925359103
 20
42.20796812476078
 30
0.0
 11
1404.198925359102
 21
42.20796812476078
 31
0.0
  0
LINE
  5
134
330
2
100
AcDbEntity
  8
A1枠
100
AcDbLine
 10
1404.198925359102
 20
42.20796812476078
 30
0.0
 11
1404.198925359102
 21
38.35796812476087
 31
0.0
  0
LINE
  5
135
330
2
100
AcDbEntity
  8
A1枠
100
AcDbLine
 10
1403.148925359102
 20
38.35796812476087
 30
0.0
 11
1403.148925359102
 21
39.75796812476073
 31
0.0
  0
LINE
  5
136
330
2
100
AcDbEntity
  8
A1枠
100
AcDbLine
 10
1397.898925359102
 20
42.55796812476069
 30
0.0
 11
1397.898925359102
 21
39.40796812476083
 31
0.0
  0
ARC
  5
137
330
2
100
AcDbEntity
  8
A1枠
100
AcDbCircle
 10
1398.948925359102
 20
42.55796812476069
 30
0.0
 40
1.049999999999999
100
AcDbArc
 50
90.0
 51
180.0
  0
ARC
  5
138
330
2
100
AcDbEntity
  8
A1枠
100
AcDbCircle
 10
1398.948925359102
 20
39.40796812476083
 30
0.0
 40
1.049999999999999
100
AcDbArc
 50
180.0
 51
270.0
  0
LINE
  5
139
330
2
100
AcDbEntity
  8
A1枠
100
AcDbLine
 10
1397.198925359101
 20
38.35796812476087
 30
0.0
 11
1397.198925359101
 21
45.00796812476074
 31
0.0
  0
LINE
  5
13A
330
2
100
AcDbEntity
  8
A1枠
100
AcDbLine
 10
1397.898925359102
 20
46.75796812476074
 30
0.0
 11
1397.898925359102
 21
45.35796812476087
 31
0.0
  0
LINE
  5
13B
330
2
100
AcDbEntity
  8
A1枠
100
AcDbLine
 10
1404.198925359102
 20
43.60796812476087
 30
0.0
 11
1398.948925359102
 21
43.60796812476087
 31
0.0
  0
ARC
  5
13C
330
2
100
AcDbEntity
  8
A1枠
100
AcDbCircle
 10
1400.348925359103
 20
40.80796812476068
 30
0.0
 40
1.049999999999999
100
AcDbArc
 50
180.0
 51
270.0
  0
ARC
  5
13D
330
2
100
AcDbEntity
  8
A1枠
100
AcDbCircle
 10
1400.348925359103
 20
41.15796812476083
 30
0.0
 40
1.049999999999999
100
AcDbArc
 50
90.0
 51
180.0
  0
LINE
  5
13E
330
2
100
AcDbEntity
  8
A1枠
100
AcDbLine
 10
1398.948925359102
 20
38.35796812476087
 30
0.0
 11
1403.148925359102
 21
38.35796812476087
 31
0.0
  0
LINE
  5
13F
330
2
100
AcDbEntity
  8
A1枠
100
AcDbLine
 10
1398.948925359102
 20
38.35796812476087
 30
0.0
 11
1403.148925359102
 21
38.35796812476087
 31
0.0
  0
LINE
  5
140
330
2
100
AcDbEntity
  8
A1枠
100
AcDbLine
 10
1397.898925359102
 20
45.35796812476087
 30
0.0
 11
1403.148925359102
 21
45.35796812476087
 31
0.0
  0
LINE
  5
141
330
2
100
AcDbEntity
  8
A1枠
100
AcDbLine
 10
1403.848925359103
 20
46.75796812476074
 30
0.0
 11
1397.898925359102
 21
46.75796812476074
 31
0.0
  0
ARC
  5
142
330
2
100
AcDbEntity
  8
A1枠
100
AcDbCircle
 10
1403.848925359103
 20
45.00796812476074
 30
0.0
 40
1.75
100
AcDbArc
 50
0.0
 51
90.0
  0
ARC
  5
143
330
2
100
AcDbEntity
  8
A1枠
100
AcDbCircle
 10
1403.148925359102
 20
44.30796812476069
 30
0.0
 40
1.049999999999999
100
AcDbArc
 50
0.0
 51
90.0
  0
LINE
  5
144
330
2
100
AcDbEntity
  8
A1枠
100
AcDbLine
 10
1404.198925359102
 20
38.35796812476087
 30
0.0
 11
1405.598925359103
 21
38.35796812476087
 31
0.0
  0
LINE
  5
145
330
2
100
AcDbEntity
  8
A1枠
100
AcDbLine
 10
1412.083706515048
 20
40.85803444114094
 30
0.0
 11
1410.163759568149
 21
45.65790180838052
 31
0.0
  0
LINE
  5
146
330
2
100
AcDbEntity
  8
A1枠
100
AcDbLine
 10
1413.848540724095
 20
46.75796812476074
 30
0.0
 11
1413.848540724095
 21
39.75796812476073
 31
0.0
  0
LINE
  5
147
330
2
100
AcDbEntity
  8
A1枠
100
AcDbLine
 10
1415.248540724096
 20
46.75796812476074
 30
0.0
 11
1415.248540724096
 21
38.35796812476087
 31
0.0
  0
ARC
  5
148
330
2
100
AcDbEntity
  8
A1枠
100
AcDbCircle
 10
1413.708540724095
 20
41.50796812476073
 30
0.0
 40
1.75
100
AcDbArc
 50
201.8014094863524
 51
270.0
  0
LINE
  5
149
330
2
100
AcDbEntity
  8
A1枠
100
AcDbLine
 10
1413.848540724095
 20
39.75796812476073
 30
0.0
 11
1413.708540724095
 21
39.75796812476073
 31
0.0
  0
LINE
  5
14A
330
2
100
AcDbEntity
  8
A1枠
100
AcDbLine
 10
1415.248540724096
 20
38.35796812476087
 30
0.0
 11
1413.008540724095
 21
38.35796812476064
 31
0.0
  0
ARC
  5
14B
330
2
100
AcDbEntity
  8
A1枠
100
AcDbCircle
 10
1413.008540724095
 20
40.10796812476065
 30
0.0
 40
1.75
100
AcDbArc
 50
201.8014094863524
 51
270.0
  0
LINE
  5
14C
330
2
100
AcDbEntity
  8
A1枠
100
AcDbLine
 10
1413.848540724095
 20
46.75796812476074
 30
0.0
 11
1415.248540724096
 21
46.75796812476074
 31
0.0
  0
MTEXT
  5
14D
330
2
100
AcDbEntity
  8
A1枠
 62
     3
100
AcDbMText
 10
1379.652796859087
 20
64.92519912548409
 30
0.0
 40
4.0
 41
0.0
 71
     5
 72
     5
  1
Urakawa
  7
表題
 73
     1
 44
1.0
  0
ARC
  5
14E
330
2
100
AcDbEntity
  8
A1枠
100
AcDbCircle
 10
1383.227689765179
 20
44.65796812476082
 30
0.0
 40
0.7000000000000002
100
AcDbArc
 50
90.0
 51
170.6035226231633
  0
ARC
  5
14F
330
2
100
AcDbEntity
  8
A1枠
100
AcDbCircle
 10
1383.227689765179
 20
43.95796812476078
 30
0.0
 40
0.7000000000000002
100
AcDbArc
 50
189.3964773768302
 51
270.0
  0
ARC
  5
150
330
2
100
AcDbEntity
  8
A1枠
100
AcDbCircle
 10
1383.286425359103
 20
43.95796812476078
 30
0.0
 40
2.099999999999999
100
AcDbArc
 50
208.0724869358428
 51
270.0
  0
LINE
  5
151
330
2
100
AcDbEntity
  8
A1枠
100
AcDbLine
 10
1386.670160953024
 20
39.75796812476073
 30
0.0
 11
1381.098925359103
 21
39.75796812476073
 31
0.0
  0
LINE
  5
152
330
2
100
AcDbEntity
  8
A1枠
100
AcDbLine
 10
1381.098925359103
 20
38.35796812476087
 30
0.0
 11
1386.6114253591
 21
38.35796812476087
 31
0.0
  0
ARC
  5
153
330
2
100
AcDbEntity
  8
A1枠
100
AcDbCircle
 10
1383.286425359103
 20
44.65796812476082
 30
0.0
 40
2.099999999999999
100
AcDbArc
 50
90.0
 51
151.9275130641571
  0
ARC
  5
154
330
2
100
AcDbEntity
  8
A1枠
100
AcDbCircle
 10
1383.942675359103
 20
44.30796812476069
 30
0.0
 40
2.843749999999989
100
AcDbArc
 50
151.9275130641571
 51
208.0724869358428
  0
ARC
  5
155
330
2
100
AcDbEntity
  8
A1枠
100
AcDbCircle
 10
1385.342675359101
 20
44.30796812476069
 30
0.0
 40
2.843750000000015
100
AcDbArc
 50
170.6035226231633
 51
189.3964773768302
  0
LINE
  5
156
330
2
100
AcDbEntity
  8
A1枠
100
AcDbLine
 10
1381.098925359103
 20
39.75796812476073
 30
0.0
 11
1381.098925359103
 21
38.35796812476087
 31
0.0
  0
ARC
  5
157
330
2
100
AcDbEntity
  8
A1枠
100
AcDbCircle
 10
1394.748925359101
 20
44.30796812476069
 30
0.0
 40
1.049999999999999
100
AcDbArc
 50
0.0
 51
90.0
  0
LINE
  5
158
330
2
100
AcDbEntity
  8
A1枠
100
AcDbLine
 10
1395.7989253591
 20
43.60796812476087
 30
0.0
 11
1390.5489253591
 21
43.60796812476087
 31
0.0
  0
LINE
  5
159
330
2
100
AcDbEntity
  8
A1枠
100
AcDbLine
 10
1394.748925359101
 20
39.75796812476073
 30
0.0
 11
1391.948925359101
 21
39.75796812476073
 31
0.0
  0
LINE
  5
15A
330
2
100
AcDbEntity
  8
A1枠
100
AcDbLine
 10
1391.948925359101
 20
42.20796812476078
 30
0.0
 11
1395.7989253591
 21
42.20796812476078
 31
0.0
  0
ARC
  5
15B
330
2
100
AcDbEntity
  8
A1枠
100
AcDbCircle
 10
1391.948925359101
 20
40.80796812476068
 30
0.0
 40
1.049999999999999
100
AcDbArc
 50
180.0
 51
270.0
  0
LINE
  5
15C
330
2
100
AcDbEntity
  8
A1枠
100
AcDbLine
 10
1389.498925359101
 20
42.55796812476069
 30
0.0
 11
1389.498925359101
 21
39.40796812476083
 31
0.0
  0
ARC
  5
15D
330
2
100
AcDbEntity
  8
A1枠
100
AcDbCircle
 10
1385.9551753591
 20
40.80796812476068
 30
0.0
 40
2.843749999999996
100
AcDbArc
 50
331.9275130641571
 51
28.0724869358428
  0
LINE
  5
15E
330
2
100
AcDbEntity
  8
A1枠
100
AcDbLine
 10
1390.898925359102
 20
40.80796812476068
 30
0.0
 11
1390.898925359102
 21
41.15796812476083
 31
0.0
  0
ARC
  5
15F
330
2
100
AcDbEntity
  8
A1枠
100
AcDbCircle
 10
1391.948925359101
 20
41.15796812476083
 30
0.0
 40
1.049999999999999
100
AcDbArc
 50
90.0
 51
180.0
  0
ARC
  5
160
330
2
100
AcDbEntity
  8
A1枠
100
AcDbCircle
 10
1390.5489253591
 20
42.55796812476069
 30
0.0
 40
1.049999999999999
100
AcDbArc
 50
90.0
 51
180.0
  0
LINE
  5
161
330
2
100
AcDbEntity
  8
A1枠
100
AcDbLine
 10
1395.7989253591
 20
44.30796812476069
 30
0.0
 11
1395.7989253591
 21
43.60796812476087
 31
0.0
  0
LINE
  5
162
330
2
100
AcDbEntity
  8
A1枠
100
AcDbLine
 10
1390.5489253591
 20
38.35796812476087
 30
0.0
 11
1394.748925359101
 21
38.35796812476087
 31
0.0
  0
LINE
  5
163
330
2
100
AcDbEntity
  8
A1枠
100
AcDbLine
 10
1390.5489253591
 20
38.35796812476087
 30
0.0
 11
1394.748925359101
 21
38.35796812476087
 31
0.0
  0
ARC
  5
164
330
2
100
AcDbEntity
  8
A1枠
100
AcDbCircle
 10
1390.5489253591
 20
39.40796812476083
 30
0.0
 40
1.049999999999999
100
AcDbArc
 50
180.0
 51
270.0
  0
LINE
  5
165
330
2
100
AcDbEntity
  8
A1枠
100
AcDbLine
 10
1395.7989253591
 20
42.20796812476078
 30
0.0
 11
1395.7989253591
 21
38.35796812476087
 31
0.0
  0
LINE
  5
166
330
2
100
AcDbEntity
  8
A1枠
100
AcDbLine
 10
1394.748925359101
 20
38.35796812476087
 30
0.0
 11
1394.748925359101
 21
39.75796812476073
 31
0.0
  0
LINE
  5
167
330
2
100
AcDbEntity
  8
A1枠
100
AcDbLine
 10
1395.448925359102
 20
46.75796812476074
 30
0.0
 11
1389.498925359101
 21
46.75796812476074
 31
0.0
  0
LINE
  5
168
330
2
100
AcDbEntity
  8
A1枠
100
AcDbLine
 10
1389.498925359101
 20
45.35796812476087
 30
0.0
 11
1394.748925359101
 21
45.35796812476087
 31
0.0
  0
LINE
  5
169
330
2
100
AcDbEntity
  8
A1枠
100
AcDbLine
 10
1389.498925359101
 20
46.75796812476074
 30
0.0
 11
1389.498925359101
 21
45.35796812476087
 31
0.0
  0
LINE
  5
16A
330
2
100
AcDbEntity
  8
A1枠
100
AcDbLine
 10
1388.7989253591
 20
46.75796812476074
 30
0.0
 11
1388.7989253591
 21
45.35796812476087
 31
0.0
  0
LINE
  5
16B
330
2
100
AcDbEntity
  8
A1枠
100
AcDbLine
 10
1383.227689765179
 20
43.25796812476073
 30
0.0
 11
1386.6114253591
 21
43.25796812476073
 31
0.0
  0
ARC
  5
16C
330
2
100
AcDbEntity
  8
A1枠
100
AcDbCircle
 10
1386.670160953024
 20
40.45796812476078
 30
0.0
 40
0.7000000000000002
100
AcDbArc
 50
270.0
 51
350.6035226231633
  0
ARC
  5
16D
330
2
100
AcDbEntity
  8
A1枠
100
AcDbCircle
 10
1386.670160953024
 20
41.15796812476083
 30
0.0
 40
0.7000000000000002
100
AcDbArc
 50
9.396477376836651
 51
90.0
  0
ARC
  5
16E
330
2
100
AcDbEntity
  8
A1枠
100
AcDbCircle
 10
1384.555175359102
 20
40.80796812476068
 30
0.0
 40
2.843750000000031
100
AcDbArc
 50
350.6035226231633
 51
9.396477376830228
  0
LINE
  5
16F
330
2
100
AcDbEntity
  8
A1枠
100
AcDbLine
 10
1386.670160953024
 20
41.85796812476087
 30
0.0
 11
1383.286425359103
 21
41.85796812476087
 31
0.0
  0
ARC
  5
170
330
2
100
AcDbEntity
  8
A1枠
100
AcDbCircle
 10
1386.6114253591
 20
41.15796812476083
 30
0.0
 40
2.099999999999999
100
AcDbArc
 50
28.0724869358428
 51
90.0
  0
ARC
  5
171
330
2
100
AcDbEntity
  8
A1枠
100
AcDbCircle
 10
1386.6114253591
 20
40.45796812476078
 30
0.0
 40
2.099999999999999
100
AcDbArc
 50
270.0
 51
331.9275130641571
  0
LINE
  5
172
330
2
100
AcDbEntity
  8
A1枠
100
AcDbLine
 10
1383.286425359103
 20
46.75796812476074
 30
0.0
 11
1388.7989253591
 21
46.75796812476074
 31
0.0
  0
LINE
  5
173
330
2
100
AcDbEntity
  8
A1枠
100
AcDbLine
 10
1388.7989253591
 20
45.35796812476087
 30
0.0
 11
1383.227689765179
 21
45.35796812476087
 31
0.0
  0
HATCH
  5
174
330
2
100
AcDbEntity
  8
A1枠
100
AcDbHatch
 10
0.0
 20
0.0
 30
0.0
210
0.0
220
0.0
230
1.0
  2
SOLID
 70
     1
 71
     0
 91
        4
 92
        7
 72
     1
 73
     1
 93
       20
 10
1386.611425359104
 20
43.25796812476069
 42
0.0
 10
1383.22768976518
 20
43.25796812476069
 42
-0.3669553196555314
 10
1382.537082224309
 20
43.843682410475
 42
-0.0821840173641001
 10
1382.537082224305
 20
44.77225383904638
 42
-0.3669553196554433
 10
1383.22768976518
 20
45.35796812476087
 42
0.0
 10
1388.798925359104
 20
45.35796812476087
 42
0.0
 10
1388.798925359104
 20
46.75796812476069
 42
0.0
 10
1383.286425359103
 20
46.75796812476069
 42
0.2769839649484354
 10
1381.433484182631
 20
45.64620341887853
 42
0.2499999999999837
 10
1381.433484182631
 20
42.9697328306434
 42
0.2769839649484511
 10
1383.286425359103
 20
41.85796812476087
 42
0.0
 10
1386.670160953024
 20
41.85796812476087
 42
-0.3669553196555126
 10
1387.360768493898
 20
41.27225383904638
 42
-0.0821840173640942
 10
1387.360768493898
 20
40.343682410475
 42
-0.3669553196554584
 10
1386.670160953024
 20
39.75796812476069
 42
0.0
 10
1381.098925359103
 20
39.75796812476069
 42
0.0
 10
1381.098925359103
 20
38.35796812476087
 42
0.0
 10
1386.611425359104
 20
38.35796812476087
 42
0.2769839649484323
 10
1388.464366535574
 20
39.46973283064303
 42
0.2499999999999991
 10
1388.464366535574
 20
42.14620341887854
 42
0.2769839649484371
 97
        0
 92
        7
 72
     1
 73
     1
 93
       20
 10
1390.548925359104
 20
43.60796812476087
 42
0.4142135623731131
 10
1389.498925359106
 20
42.55796812476069
 42
0.0
 10
1389.498925359106
 20
39.40796812476087
 42
0.4142135623730969
 10
1390.548925359104
 20
38.35796812476087
 42
0.0
 10
1394.748925359106
 20
38.35796812476087
 42
0.0
 10
1394.748925359106
 20
39.75796812476069
 42
0.0
 10
1391.9489253591
 20
39.75796812476069
 42
-0.4142135623731128
 10
1390.898925359104
 20
40.80796812476068
 42
0.0
 10
1390.898925359104
 20
41.15796812476087
 42
-0.4142135623730971
 10
1391.9489253591
 20
42.20796812476087
 42
0.0
 10
1395.798925359104
 20
42.20796812476087
 42
0.0
 10
1395.798925359104
 20
38.35796812476087
 42
0.0
 10
1397.1989253591
 20
38.35796812476087
 42
0.0
 10
1397.1989253591
 20
45.00796812476069
 42
0.4142135623730951
 10
1395.4489253591
 20
46.75796812476069
 42
0.0
 10
1389.498925359106
 20
46.75796812476069
 42
0.0
 10
1389.498925359106
 20
45.35796812476087
 42
0.0
 10
1394.748925359106
 20
45.35796812476087
 42
-0.4142135623731129
 10
1395.798925359104
 20
44.30796812476069
 42
0.0
 10
1395.798925359104
 20
43.60796812476087
 42
0.0
 97
        0
 92
        7
 72
     1
 73
     1
 93
       20
 10
1398.9489253591
 20
43.6079681247607
 42
0.4142135623731131
 10
1397.898925359104
 20
42.55796812476069
 42
0.0
 10
1397.898925359104
 20
39.40796812476087
 42
0.4142135623730969
 10
1398.9489253591
 20
38.35796812476087
 42
0.0
 10
1403.148925359104
 20
38.35796812476087
 42
0.0
 10
1403.148925359104
 20
39.75796812476069
 42
0.0
 10
1400.348925359103
 20
39.75796812476069
 42
-0.4142135623730811
 10
1399.298925359104
 20
40.80796812476068
 42
0.0
 10
1399.298925359104
 20
41.15796812476087
 42
-0.414213562373096
 10
1400.348925359103
 20
42.20796812476087
 42
0.0
 10
1404.1989253591
 20
42.20796812476087
 42
0.0
 10
1404.1989253591
 20
38.35796812476087
 42
0.0
 10
1405.598925359103
 20
38.35796812476087
 42
0.0
 10
1405.598925359103
 20
45.00796812476069
 42
0.4142135623730951
 10
1403.848925359103
 20
46.75796812476069
 42
0.0
 10
1397.898925359104
 20
46.75796812476069
 42
0.0
 10
1397.898925359104
 20
45.35796812476069
 42
0.0
 10
1403.148925359104
 20
45.35796812476069
 42
-0.4142135623731129
 10
1404.1989253591
 20
44.30796812476069
 42
0.0
 10
1404.1989253591
 20
43.6079681247607
 42
0.0
 97
        0
 92
        7
 72
     1
 73
     1
 93
       16
 10
1407.6989253591
 20
45.35796812476069
 42
0.0
 10
1407.838925359103
 20
45.35796812476069
 42
-0.306678441558875
 10
1409.463759568152
 20
44.25790180838044
 42
0.0
 10
1411.383706515049
 20
39.45803444114113
 42
0.3066784415588886
 10
1413.008540724096
 20
38.35796812476069
 42
0.0
 10
1415.248540724096
 20
38.35796812476087
 42
0.0
 10
1415.248540724096
 20
46.75796812476069
 42
0.0
 10
1413.848540724093
 20
46.75796812476069
 42
0.0
 10
1413.848540724093
 20
39.75796812476069
 42
0.0
 10
1413.708540724097
 20
39.75796812476069
 42
-0.3066784415588917
 10
1412.083706515048
 20
40.85803444114094
 42
0.0
 10
1410.163759568155
 20
45.65790180838062
 42
0.3066784415588832
 10
1408.538925359104
 20
46.75796812476069
 42
0.0
 10
1406.298925359104
 20
46.75796812476069
 42
0.0
 10
1406.298925359104
 20
38.35796812476087
 42
0.0
 10
1407.6989253591
 20
38.35796812476087
 42
0.0
 97
        0
 75
     0
 76
     1
 47
0.0756444689632718
 98
        4
 10
1385.489274533525
 20
42.7731050579157
 10
1391.4251065765
 20
42.98490958966499
 10
1399.692872620527
 20
42.98490958966499
 10
1407.21865965918
 20
42.98490958966499
  0
ARC
  5
175
330
2
100
AcDbEntity
  8
A1枠
100
AcDbCircle
 10
1395.448925359102
 20
45.00796812476074
 30
0.0
 40
1.75
100
AcDbArc
 50
0.0
 51
90.0
  0
LINE
  5
176
330
2
100
AcDbEntity
  8
A1枠
100
AcDbLine
 10
1395.7989253591
 20
38.35796812476087
 30
0.0
 11
1397.198925359101
 21
38.35796812476087
 31
0.0
  0
MTEXT
  5
177
330
2
100
AcDbEntity
  8
A1枠
 62
     3
100
AcDbMText
 10
1341.400000000001
 20
90.99999999999996
 30
0.0
 40
5.0
 41
80.0
 71
     5
 72
     5
  1
Name
  7
表題
 73
     1
 44
1.0
  0
ATTDEF
  5
178
330
2
100
AcDbEntity
  8
A1枠
100
AcDbText
 10
1384.518510662252
 20
118.0000000000004
 30
0.0
 40
6.0
  1

  7
表題
 11
1384.518510662252
 21
121.0000000000004
 31
0.0
100
AcDbAttributeDefinition
  3
材質
  2
SUS316L
 70
     0
 74
     2
  0
ATTDEF
  5
179
330
2
100
AcDbEntity
  8
A1枠
100
AcDbText
 10
1384.518510662252
 20
98.00000000000041
 30
0.0
 40
6.0
  1

  7
表題
 11
1384.518510662252
 21
101.0000000000004
 31
0.0
100
AcDbAttributeDefinition
  3
材質
  2
SUS316L
 70
     0
 74
     2
  0
ATTDEF
  5
17A
330
2
100
AcDbEntity
  8
A1枠
100
AcDbText
 10
1384.518510662252
 20
108.0000000000004
 30
0.0
 40
6.0
  1

  7
表題
 11
1384.518510662252
 21
111.0000000000004
 31
0.0
100
AcDbAttributeDefinition
  3
材質
  2
SUS316L
 70
     0
 74
     2
  0
ATTDEF
  5
17B
330
2
100
AcDbEntity
  8
A1枠
100
AcDbText
 10
1384.518510662252
 20
128.0000000000004
 30
0.0
 40
6.0
  1

  7
表題
 11
1384.518510662252
 21
131.0000000000004
 31
0.0
100
AcDbAttributeDefinition
  3
材質
  2
SUS316L
 70
     0
 74
     2
  0
LINE
  5
17C
330
2
100
AcDbEntity
  8
A1枠
100
AcDbLine
 10
1381.400000000001
 20
96.0
 30
0.0
 11
1381.400000000001
 21
86.0
 31
0.0
  0
LWPOLYLINE
  5
17D
330
2
100
AcDbEntity
  8
A1枠
100
AcDbPolyline
 90
        4
 70
     1
 43
0.0
 10
1381.400000000001
 20
116.0
 10
1431.400000000001
 20
116.0
 10
1431.400000000001
 20
126.0
 10
1381.400000000001
 20
126.0
  0
LWPOLYLINE
  5
17E
330
2
100
AcDbEntity
  8
A1枠
100
AcDbPolyline
 90
        4
 70
     1
 43
0.0
 10
1381.400000000001
 20
96.0
 10
1431.400000000001
 20
96.0
 10
1431.400000000001
 20
106.0
 10
1381.400000000001
 20
106.0
  0
LWPOLYLINE
  5
17F
330
2
100
AcDbEntity
  8
A1枠
100
AcDbPolyline
 90
        4
 70
     1
 43
0.0
 10
1381.400000000001
 20
106.0
 10
1431.400000000001
 20
106.0
 10
1431.400000000001
 20
116.0
 10
1381.400000000001
 20
116.0
  0
LWPOLYLINE
  5
180
330
2
100
AcDbEntity
  8
A1枠
100
AcDbPolyline
 90
        4
 70
     1
 43
0.0
 10
1381.400000000001
 20
126.0
 10
1431.400000000001
 20
126.0
 10
1431.400000000001
 20
136.0
 10
1381.400000000001
 20
136.0
  0
MTEXT
  5
181
330
2
100
AcDbEntity
  8
A1枠
 62
     3
100
AcDbMText
 10
1406.3333
 20
90.99999999999996
 30
0.0
 40
5.0
 41
44.6666
 71
     5
 72
     5
  1
Material
  7
表題
 73
     1
 44
1.0
  0
LINE
  5
182
330
2
100
AcDbEntity
  8
細線
100
AcDbLine
 10
1188.876602653928
 20
245.0869185317997
 30
0.0
 11
1341.698807275222
 21
245.0869185317997
 31
0.0
  0
MTEXT
  5
183
330
2
100
AcDbEntity
  8
細線
100
AcDbMText
 10
1266.390729570992
 20
247.2956364542442
 30
0.0
 40
9.0
 41
0.0
 71
     8
 72
     5
  1
4-4 Supporting Plate-4
  7
表題
 73
     1
 44
1.0
  0
DIMENSION
  5
184
330
2
100
AcDbEntity
  8
AM_5
100
AcDbDimension
  2
*D21
 10
1294.654521896942
 20
386.6881208665208
 30
0.0
 11
1290.154521896942
 21
394.1881208665211
 31
0.0
 71
     5
 42
15.0
  3
スタイル2
100
AcDbAlignedDimension
 13
1338.571882873826
 23
401.6881208665209
 33
0.0
 14
1353.571882873826
 24
386.6881208665208
 34
0.0
 50
90.0
100
AcDbRotatedDimension
  0
LINE
  5
191
330
2
100
AcDbEntity
  8
補強板
100
AcDbLine
 10
1353.571882873826
 20
386.6881208665208
 30
0.0
 11
1418.571882873826
 21
386.6881208665208
 31
0.0
  0
LINE
  5
192
330
2
100
AcDbEntity
  8
補強板
100
AcDbLine
 10
1353.571882873826
 20
386.6881208665208
 30
0.0
 11
1338.571882873826
 21
401.6881208665209
 31
0.0
  0
DIMENSION
  5
193
330
2
100
AcDbEntity
  8
AM_5
100
AcDbDimension
  2
*D22
 10
1353.571882873826
 20
342.6701663934291
 30
0.0
 11
1346.071882873826
 21
347.1701663934291
 31
0.0
 71
     5
 42
15.0
  3
スタイル2
100
AcDbAlignedDimension
 13
1338.571882873826
 23
401.6881208665209
 33
0.0
 14
1353.571882873826
 24
386.6881208665208
 34
0.0
100
AcDbRotatedDimension
  0
DIMENSION
  5
1A0
330
2
100
AcDbEntity
  8
AM_5
100
AcDbDimension
  2
*D17
 10
1128.194070564264
 20
617.4320132268112
 30
0.0
 11
1118.194070564264
 21
621.9320132268112
 31
0.0
 71
     5
 42
20.0
  3
スタイル2
100
AcDbAlignedDimension
 13
1108.194070564264
 23
566.6881208665208
 33
0.0
 14
1128.194070564264
 24
566.6881208665208
 34
0.0
100
AcDbRotatedDimension
  0
LINE
  5
1AD
330
2
100
AcDbEntity
  8
補強板
100
AcDbLine
 10
1128.194070564264
 20
790.6089378033129
 30
0.0
 11
1108.194070564264
 21
790.6089378033129
 31
0.0
  0
LINE
  5
1AE
330
2
100
AcDbEntity
  8
補強板
100
AcDbLine
 10
1128.194070564264
 20
760.608937803313
 30
0.0
 11
1108.194070564264
 21
760.608937803313
 31
0.0
  0
LWPOLYLINE
  5
1AF
330
2
100
AcDbEntity
  8
補強板
100
AcDbPolyline
 90
        4
 70
     1
 43
0.0
 10
1128.194070564264
 20
745.6089378033129
 10
1128.194070564264
 20
805.608937803313
 10
1108.194070564264
 20
805.608937803313
 10
1108.194070564264
 20
745.6089378033129
  0
DIMENSION
  5
1B0
330
2
100
AcDbEntity
  8
AM_5
100
AcDbDimension
  2
*D9
 10
1052.766834982607
 20
745.6089378033129
 30
0.0
 11
1048.266834982606
 21
775.6089378033131
 31
0.0
 71
     5
 42
60.0
  3
スタイル2
100
AcDbAlignedDimension
 13
1108.194070564264
 23
805.608937803313
 33
0.0
 14
1108.194070564264
 24
745.6089378033129
 34
0.0
 50
90.0
100
AcDbRotatedDimension
  0
DIMENSION
  5
1BD
330
2
100
AcDbEntity
  8
AM_5
100
AcDbDimension
  2
*D10
 10
1128.194070564264
 20
867.7044400481609
 30
0.0
 11
1118.194070564264
 21
872.2044400481609
 31
0.0
 71
     5
 42
20.0
  3
スタイル2
100
AcDbAlignedDimension
 13
1108.194070564264
 23
805.608937803313
 33
0.0
 14
1128.194070564264
 24
805.608937803313
 34
0.0
100
AcDbRotatedDimension
  0
LINE
  5
1CA
330
2
100
AcDbEntity
  8
細線
100
AcDbLine
 10
1188.876602653928
 20
679.9606772170736
 30
0.0
 11
1345.77406587357
 21
679.9606772170736
 31
0.0
  0
LINE
  5
1CB
330
2
100
AcDbEntity
  8
補強板
100
AcDbLine
 10
1338.571882873826
 20
566.6881208665208
 30
0.0
 11
1418.571882873826
 21
486.6881208665208
 31
0.0
  0
DIMENSION
  5
1CC
330
2
100
AcDbEntity
  8
AM_5
100
AcDbDimension
  2
*D18
 10
1418.571882873826
 20
617.4320132268112
 30
0.0
 11
1378.571882873826
 21
621.9320132268112
 31
0.0
 71
     5
 42
80.0
  3
スタイル2
100
AcDbAlignedDimension
 13
1338.571882873826
 23
566.6881208665208
 33
0.0
 14
1418.571882873826
 24
486.6881208665208
 34
0.0
100
AcDbRotatedDimension
  0
MTEXT
  5
1D9
330
2
100
AcDbEntity
  8
細線
100
AcDbMText
 10
1266.390729570992
 20
682.1693951395181
 30
0.0
 40
9.0
 41
0.0
 71
     8
 72
     5
  1
4-3 Supporting Plate-3
  7
表題
 73
     1
 44
1.0
  0
DIMENSION
  5
1DA
330
2
100
AcDbEntity
  8
AM_5
100
AcDbDimension
  2
*D13
 10
1293.795934054253
 20
790.6089378033125
 30
0.0
 11
1289.295934054252
 21
798.108937803313
 31
0.0
 71
     5
 42
15.00000000000045
  3
スタイル2
100
AcDbAlignedDimension
 13
1353.571882873826
 23
805.608937803313
 33
0.0
 14
1338.571882873826
 24
790.6089378033125
 34
0.0
 50
90.0
100
AcDbRotatedDimension
  0
DIMENSION
  5
1E7
330
2
100
AcDbEntity
  8
AM_5
100
AcDbDimension
  2
*D14
 10
1293.795934054253
 20
745.6089378033129
 30
0.0
 11
1289.295934054252
 21
753.1089378033132
 31
0.0
 71
     5
 42
15.0
  3
スタイル2
100
AcDbAlignedDimension
 13
1338.571882873826
 23
760.608937803313
 33
0.0
 14
1353.571882873826
 24
745.6089378033129
 34
0.0
 50
90.0
100
AcDbRotatedDimension
  0
LINE
  5
1F4
330
2
100
AcDbEntity
  8
補強板
100
AcDbLine
 10
1353.571882873826
 20
745.6089378033134
 30
0.0
 11
1418.571882873826
 21
745.6089378033129
 31
0.0
  0
LINE
  5
1F5
330
2
100
AcDbEntity
  8
補強板
100
AcDbLine
 10
1353.571882873826
 20
805.608937803313
 30
0.0
 11
1418.571882873826
 21
805.608937803313
 31
0.0
  0
LINE
  5
1F6
330
2
100
AcDbEntity
  8
補強板
100
AcDbLine
 10
1353.571882873826
 20
805.608937803313
 30
0.0
 11
1338.571882873826
 21
790.6089378033129
 31
0.0
  0
LINE
  5
1F7
330
2
100
AcDbEntity
  8
補強板
100
AcDbLine
 10
1353.571882873826
 20
745.6089378033129
 30
0.0
 11
1338.571882873826
 21
760.608937803313
 31
0.0
  0
LINE
  5
1F8
330
2
100
AcDbEntity
  8
補強板
100
AcDbLine
 10
1338.571882873826
 20
790.6089378033125
 30
0.0
 11
1338.571882873826
 21
760.608937803313
 31
0.0
  0
LINE
  5
1F9
330
2
100
AcDbEntity
  8
補強板
100
AcDbLine
 10
1418.571882873826
 20
745.6089378033129
 30
0.0
 11
1418.571882873828
 21
805.608937803313
 31
0.0
  0
DIMENSION
  5
1FA
330
2
100
AcDbEntity
  8
AM_5
100
AcDbDimension
  2
*D11
 10
1353.571882873826
 20
846.7044400481608
 30
0.0
 11
1346.071882873826
 21
851.204440048161
 31
0.0
 71
     5
 42
15.0
  3
スタイル2
100
AcDbAlignedDimension
 13
1338.571882873826
 23
790.6089378033129
 33
0.0
 14
1353.571882873826
 24
805.608937803313
 34
0.0
100
AcDbRotatedDimension
  0
DIMENSION
  5
207
330
2
100
AcDbEntity
  8
AM_5
100
AcDbDimension
  2
*D12
 10
1418.571882873826
 20
867.7044400481609
 30
0.0
 11
1378.571882873826
 21
872.2044400481609
 31
0.0
 71
     5
 42
80.0
  3
スタイル2
100
AcDbAlignedDimension
 13
1338.571882873826
 23
790.6089378033129
 33
0.0
 14
1418.571882873826
 24
805.608937803313
 34
0.0
100
AcDbRotatedDimension
  0
DIMENSION
  5
214
330
2
100
AcDbEntity
  8
AM_5
100
AcDbDimension
  2
*D15
 10
1353.571882873826
 20
707.1142865576403
 30
0.0
 11
1346.071882873826
 21
711.6142865576403
 31
0.0
 71
     5
 42
15.0
  3
スタイル2
100
AcDbAlignedDimension
 13
1338.571882873826
 23
760.608937803313
 33
0.0
 14
1353.571882873826
 24
745.6089378033129
 34
0.0
100
AcDbRotatedDimension
  0
LWPOLYLINE
  5
221
330
2
100
AcDbEntity
  8
A1枠
100
AcDbPolyline
 90
        4
 70
     1
 43
0.0
 10
1561.400000000001
 20
116.0
 10
1610.000000562295
 20
116.0
 10
1610.000000562295
 20
126.0
 10
1561.400000000001
 20
126.0
  0
LWPOLYLINE
  5
222
330
2
100
AcDbEntity
  8
A1枠
100
AcDbPolyline
 90
        4
 70
     1
 43
0.0
 10
1561.400000000001
 20
96.0
 10
1610.000000562295
 20
96.0
 10
1610.000000562295
 20
106.0
 10
1561.400000000001
 20
106.0
  0
LWPOLYLINE
  5
223
330
2
100
AcDbEntity
  8
A1枠
100
AcDbPolyline
 90
        4
 70
     1
 43
0.0
 10
1561.400000000001
 20
106.0
 10
1610.000000562295
 20
106.0
 10
1610.000000562295
 20
116.0
 10
1561.400000000001
 20
116.0
  0
LWPOLYLINE
  5
224
330
2
100
AcDbEntity
  8
A1枠
100
AcDbPolyline
 90
        4
 70
     1
 43
0.0
 10
1561.400000000001
 20
126.0
 10
1610.000000562295
 20
126.0
 10
1610.000000562295
 20
136.0
 10
1561.400000000001
 20
136.0
  0
MTEXT
  5
225
330
2
100
AcDbEntity
  8
A1枠
 62
     3
100
AcDbMText
 10
1546.067173937435
 20
81.06142857142854
 30
0.0
 40
5.0
 41
29.0666
 71
     4
 72
     5
  1
FileNo.
  7
表題
 73
     1
 44
1.0
  0
MTEXT
  5
226
330
2
100
AcDbEntity
  8
A1枠
 62
     3
100
AcDbMText
 10
1486.000000000001
 20
42.99999999999977
 30
0.0
 40
8.0
 41
124.0
 71
     4
 72
     5
  1
TC-01196-225 2/2
  7
表題
 73
     1
 44
1.0
  0
MTEXT
  5
227
330
2
100
AcDbEntity
  8
A1枠
 62
     3
100
AcDbMText
 10
1486.000000000001
 20
70.49999999999977
 30
0.0
 40
6.0
 41
124.0
 71
     4
 72
     5
  1
Gamma Detector LXe Vessel
  7
表題
 73
     1
 44
1.0
  0
ATTDEF
  5
228
330
2
100
AcDbEntity
  8
A1枠
100
AcDbText
 10
1553.01142857143
 20
108.0
 30
0.0
 40
6.0
  1

  7
表題
 72
     2
 11
1557.400000000001
 21
111.0
 31
0.0
100
AcDbAttributeDefinition
  3
数量
  2
2
 70
     0
 74
     2
  0
ATTDEF
  5
229
330
2
100
AcDbEntity
  8
A1枠
100
AcDbText
 10
1553.01142857143
 20
98.0
 30
0.0
 40
6.0
  1

  7
表題
 72
     2
 11
1557.400000000001
 21
101.0
 31
0.0
100
AcDbAttributeDefinition
  3
数量
  2
2
 70
     0
 74
     2
  0
LINE
  5
22A
330
2
100
AcDbEntity
  8
A1枠
100
AcDbLine
 10
1561.400000000001
 20
96.0
 30
0.0
 11
1561.400000000001
 21
86.0
 31
0.0
  0
ATTDEF
  5
22B
330
2
100
AcDbEntity
  8
A1枠
100
AcDbText
 10
1433.833734265656
 20
118.0000000000021
 30
0.0
 40
6.0
  1

  7
表題
 11
1433.833734265656
 21
121.0000000000021
 31
0.0
100
AcDbAttributeDefinition
  3
素材寸法
  2
t20
 70
     0
 74
     2
  0
ATTDEF
  5
22C
330
2
100
AcDbEntity
  8
A1枠
100
AcDbText
 10
1433.833734265656
 20
98.00000000000219
 30
0.0
 40
6.0
  1

  7
表題
 11
1433.833734265656
 21
101.0000000000021
 31
0.0
100
AcDbAttributeDefinition
  3
素材寸法
  2
t20
 70
     0
 74
     2
  0
ATTDEF
  5
22D
330
2
100
AcDbEntity
  8
A1枠
100
AcDbText
 10
1433.833734265656
 20
108.0000000000021
 30
0.0
 40
6.0
  1

  7
表題
 11
1433.833734265656
 21
111.0000000000021
 31
0.0
100
AcDbAttributeDefinition
  3
素材寸法
  2
t20
 70
     0
 74
     2
  0
ATTDEF
  5
22E
330
2
100
AcDbEntity
  8
A1枠
100
AcDbText
 10
1433.833734265656
 20
128.0000000000022
 30
0.0
 40
6.0
  1

  7
表題
 11
1433.833734265656
 21
131.0000000000021
 31
0.0
100
AcDbAttributeDefinition
  3
素材寸法
  2
t20
 70
     0
 74
     2
  0
LINE
  5
22F
330
2
100
AcDbEntity
  8
A1枠
100
AcDbLine
 10
1544.066666666665
 20
85.99999999999978
 30
0.0
 11
1544.066666666665
 21
75.99999999999977
 31
0.0
  0
LINE
  5
230
330
2
100
AcDbEntity
  8
A1枠
100
AcDbLine
 10
1480.0
 20
85.99999999999978
 30
0.0
 11
1480.0
 21
53.99999999999977
 31
0.0
  0
MTEXT
  5
231
330
2
100
AcDbEntity
  8
A1枠
 62
     3
100
AcDbMText
 10
1465.000000000001
 20
81.37999999999989
 30
0.0
 40
5.0
 41
30.0
 71
     5
 72
     5
  1
Date
  7
表題
 73
     1
 44
1.0
  0
LINE
  5
232
330
2
100
AcDbEntity
  8
A1枠
100
AcDbLine
 10
1450.0
 20
85.99999999999978
 30
0.0
 11
1450.0
 21
31.99999999999977
 31
0.0
  0
MTEXT
  5
233
330
2
100
AcDbEntity
  8
A1枠
 62
     3
100
AcDbMText
 10
1512.500000000001
 20
80.99999999999978
 30
0.0
 40
6.0
 41
65.0
 71
     5
 72
     5
  1
22/Aug/2002
  7
表題
 73
     1
 44
1.0
  0
MTEXT
  5
234
330
2
100
AcDbEntity
  8
A1枠
 62
     3
100
AcDbMText
 10
1486.000000000001
 20
59.49999999999977
 30
0.0
 40
6.0
 41
124.0
 71
     4
 72
     5
  1
Parts of the Outer Vessel
  7
表題
 73
     1
 44
1.0
  0
LINE
  5
235
330
2
100
AcDbEntity
  8
A1枠
100
AcDbLine
 10
1480.0
 20
53.99999999999977
 30
0.0
 11
1480.0
 21
31.99999999999977
 31
0.0
  0
MTEXT
  5
236
330
2
100
AcDbEntity
  8
A1枠
 62
     3
100
AcDbMText
 10
1465.000000000001
 20
64.99999999999977
 30
0.0
 40
5.0
 41
30.0
 71
     5
 72
     5
  1
Name\PType
  7
表題
 73
     1
 44
1.0
  0
MTEXT
  5
237
330
2
100
AcDbEntity
  8
A1枠
 62
     3
100
AcDbMText
 10
1465.000000000001
 20
42.99999999999977
 30
0.0
 40
5.0
 41
30.0
 71
     5
 72
     5
  1
Drawing\PNumber
  7
表題
 73
     1
 44
1.0
  0
LWPOLYLINE
  5
238
330
2
100
AcDbEntity
  8
A1枠
100
AcDbPolyline
 90
        4
 70
     1
 43
0.0
 10
1501.400000000001
 20
96.0
 10
1531.400000000001
 20
96.0
 10
1531.400000000001
 20
106.0
 10
1501.400000000001
 20
106.0
  0
LWPOLYLINE
  5
239
330
2
100
AcDbEntity
  8
A1枠
100
AcDbPolyline
 90
        4
 70
     1
 43
0.0
 10
1501.400000000001
 20
116.0
 10
1531.400000000001
 20
116.0
 10
1531.400000000001
 20
126.0
 10
1501.400000000001
 20
126.0
  0
LWPOLYLINE
  5
23A
330
2
100
AcDbEntity
  8
A1枠
100
AcDbPolyline
 90
        4
 70
     1
 43
0.0
 10
1501.400000000001
 20
106.0
 10
1531.400000000001
 20
106.0
 10
1531.400000000001
 20
116.0
 10
1501.400000000001
 20
116.0
  0
LWPOLYLINE
  5
23B
330
2
100
AcDbEntity
  8
A1枠
100
AcDbPolyline
 90
        4
 70
     1
 43
0.0
 10
1501.400000000001
 20
126.0
 10
1531.400000000001
 20
126.0
 10
1531.400000000001
 20
136.0
 10
1501.400000000001
 20
136.0
  0
MTEXT
  5
23C
330
2
100
AcDbEntity
  8
A1枠
 62
     3
100
AcDbMText
 10
1463.799966666665
 20
90.99999999999996
 30
0.0
 40
5.0
 41
90.6666
 71
     5
 72
     5
  1
Dimension
  7
表題
 73
     1
 44
1.0
  0
LINE
  5
23D
330
2
100
AcDbEntity
  8
A1枠
100
AcDbLine
 10
1501.400000000001
 20
96.0
 30
0.0
 11
1501.400000000001
 21
86.0
 31
0.0
  0
LINE
  5
23E
330
2
100
AcDbEntity
  8
A1枠
100
AcDbLine
 10
1531.400000000001
 20
86.0
 30
0.0
 11
1531.400000000001
 21
96.0
 31
0.0
  0
MTEXT
  5
23F
330
2
100
AcDbEntity
  8
A1枠
 62
     3
100
AcDbMText
 10
1516.400000000001
 20
90.99999999999996
 30
0.0
 40
5.0
 41
30.0
 71
     5
 72
     5
  1
Weight
  7
表題
 73
     1
 44
1.0
  0
LWPOLYLINE
  5
240
330
2
100
AcDbEntity
  8
A1枠
100
AcDbPolyline
 90
        4
 70
     1
 43
0.0
 10
1531.400000000001
 20
116.0
 10
1561.400000000001
 20
116.0
 10
1561.400000000001
 20
126.0
 10
1531.400000000001
 20
126.0
  0
LWPOLYLINE
  5
241
330
2
100
AcDbEntity
  8
A1枠
100
AcDbPolyline
 90
        4
 70
     1
 43
0.0
 10
1531.400000000001
 20
96.0
 10
1561.400000000001
 20
96.0
 10
1561.400000000001
 20
106.0
 10
1531.400000000001
 20
106.0
  0
LWPOLYLINE
  5
242
330
2
100
AcDbEntity
  8
A1枠
100
AcDbPolyline
 90
        4
 70
     1
 43
0.0
 10
1531.400000000001
 20
106.0
 10
1561.400000000001
 20
106.0
 10
1561.400000000001
 20
116.0
 10
1531.400000000001
 20
116.0
  0
LWPOLYLINE
  5
243
330
2
100
AcDbEntity
  8
A1枠
100
AcDbPolyline
 90
        4
 70
     1
 43
0.0
 10
1531.400000000001
 20
126.0
 10
1561.400000000001
 20
126.0
 10
1561.400000000001
 20
136.0
 10
1531.400000000001
 20
136.0
  0
MTEXT
  5
244
330
2
100
AcDbEntity
  8
A1枠
 62
     3
100
AcDbMText
 10
1546.400000000001
 20
90.99999999999978
 30
0.0
 40
5.0
 41
30.0
 71
     5
 72
     5
  1
Quantity
  7
表題
 73
     1
 44
1.0
  0
ATTDEF
  5
245
330
2
100
AcDbEntity
  8
A1枠
100
AcDbText
 10
1548.622857142858
 20
118.0
 30
0.0
 40
6.0
  1

  7
表題
 72
     2
 11
1557.400000000001
 21
121.0
 31
0.0
100
AcDbAttributeDefinition
  3
数量
  2
10
 70
     0
 74
     2
  0
ATTDEF
  5
246
330
2
100
AcDbEntity
  8
A1枠
100
AcDbText
 10
1548.622857142858
 20
128.0
 30
0.0
 40
6.0
  1

  7
表題
 72
     2
 11
1557.400000000001
 21
131.0
 31
0.0
100
AcDbAttributeDefinition
  3
数量
  2
10
 70
     0
 74
     2
  0
LINE
  5
247
330
2
100
AcDbEntity
  8
A1枠
100
AcDbLine
 10
1610.0
 20
32.00000054673787
 30
0.0
 11
1610.0
 21
85.99999999999978
 31
0.0
  0
LINE
  5
248
330
2
100
AcDbEntity
  8
A1枠
100
AcDbLine
 10
1610.000000562293
 20
32.00000054673796
 30
0.0
 11
1610.000000562293
 21
85.99999999999978
 31
0.0
  0
LINE
  5
249
330
2
100
AcDbEntity
  8
A1枠
100
AcDbLine
 10
1597.917096231198
 20
49.99999999999977
 30
0.0
 11
1589.8341924626
 21
35.99999999999977
 31
0.0
  0
LINE
  5
24A
330
2
100
AcDbEntity
  8
A1枠
100
AcDbLine
 10
1589.8341924626
 20
35.99999999999977
 30
0.0
 11
1606.0
 21
35.99999999999977
 31
0.0
  0
MTEXT
  5
24B
330
2
100
AcDbEntity
  8
A1枠
 62
     3
100
AcDbMText
 10
1598.0329455105
 20
41.75066468773343
 30
0.0
 40
8.0
 41
0.0
 71
     5
 72
     5
  1
0
  7
表題
 73
     1
 44
1.0
  0
LINE
  5
24C
330
2
100
AcDbEntity
  8
A1枠
100
AcDbLine
 10
1597.917096231198
 20
49.99999999999977
 30
0.0
 11
1606.0
 21
35.99999999999977
 31
0.0
  0
LINE
  5
24D
330
2
100
AcDbEntity
  8
A1枠
100
AcDbLine
 10
1604.0
 20
42.99999999999977
 30
0.0
 11
1610.0
 21
42.99999999999977
 31
0.0
  0
MTEXT
  5
24E
330
2
100
AcDbEntity
  8
A1枠
 62
     3
100
AcDbMText
 10
1585.700000000002
 20
90.99999999999996
 30
0.0
 40
5.0
 41
48.6
 71
     5
 72
     5
  1
Comments
  7
表題
 73
     1
 44
1.0
  0
LINE
  5
24F
330
2
100
AcDbEntity
  8
A1枠
100
AcDbLine
 10
1610.000000562293
 20
96.0
 30
0.0
 11
1610.000000562293
 21
85.99999999999978
 31
0.0
  0
DIMENSION
  5
262
330
2
100
AcDbEntity
  8
AM_5
100
AcDbDimension
  2
*D23
 10
1418.571882873826
 20
486.6881208665208
 30
0.0
 11
1393.657989195004
 21
543.8707085299629
 31
0.0
 70
    34
 71
     5
 42
0.785398163397451
  3
スタイル2
100
AcDb2LineAngularDimension
 13
1287.975622074692
 23
566.6881208665208
 33
0.0
 14
1639.207814798344
 24
566.6881208665208
 34
0.0
 15
1338.571882873826
 25
566.6881208665208
 35
0.0
 16
1394.105564287473
 26
534.6257349532607
 36
0.0
  0
ENDSEC
  0
SECTION
  2
OBJECTS
  0
DICTIONARY
  5
7
330
0
100
AcDbDictionary
281
     1
  3
ACAD_GROUP
350
27
  3
ACAD_LAYOUT
350
B
  3
ACAD_MLINESTYLE
350
28
  3
ACAD_PLOTSETTINGS
350
29
  3
ACAD_PLOTSTYLENAME
350
6
  3
AcDbVariableDictionary
350
252
  0
DICTIONARY
  5
27
102
{ACAD_REACTORS
330
7
102
}
330
7
100
AcDbDictionary
281
     1
  0
DICTIONARY
  5
B
102
{ACAD_REACTORS
330
7
102
}
330
7
100
AcDbDictionary
281
     1
  3
Model
350
A
  3
ﾚｲｱｳﾄ1
350
F
  0
DICTIONARY
  5
28
102
{ACAD_REACTORS
330
7
102
}
330
7
100
AcDbDictionary
281
     1
  3
Standard
350
2C
  0
DICTIONARY
  5
29
102
{ACAD_REACTORS
330
7
102
}
330
7
100
AcDbDictionary
281
     1
  0
ACDBDICTIONARYWDFLT
  5
6
102
{ACAD_REACTORS
330
7
102
}
330
7
100
AcDbDictionary
281
     1
  3
Normal
350
5
100
AcDbDictionaryWithDefault
340
5
  0
DICTIONARY
  5
252
102
{ACAD_REACTORS
330
7
102
}
330
7
100
AcDbDictionary
281
     1
  3
DIMASSOC
350
254
  3
HIDETEXT
350
253
  0
LAYOUT
  5
A
102
{ACAD_REACTORS
330
B
102
}
330
B
100
AcDbPlotSettings
  1

  2
HP DesignJet 700 (E (2000i).pc3
  4
User271
  6

 40
4.995333194732666
 41
16.97562789916992
 42
4.99530029296875
 43
16.97564697265625
 44
593.97900390625
 45
840.9093017578125
 46
0.0
 47
0.0
 48
2385.578030635533
 49
2639.31725467967
140
2581.758308107568
141
2750.965633398129
142
1.0
143
2.0
 70
 11936
 72
     1
 73
     1
 74
     2
  7
monochrome.ctb
 75
     0
147
0.5
148
0.0
149
0.0
100
AcDbLayout
  1
Model
 70
     1
 71
     0
 10
0.0
 20
0.0
 11
12.0
 21
9.0
 12
0.0
 22
0.0
 32
0.0
 14
0.0
 24
0.0
 34
0.0
 15
0.0
 25
0.0
 35
0.0
146
0.0
 13
0.0
 23
0.0
 33
0.0
 16
1.0
 26
0.0
 36
0.0
 17
0.0
 27
1.0
 37
0.0
 76
     0
330
2
  0
LAYOUT
  5
F
102
{ACAD_REACTORS
330
B
102
}
330
B
100
AcDbPlotSettings
  1

  2
EPSON VP-1000
  4

  6

 40
0.0
 41
0.0
 42
0.0
 43
0.0
 44
0.0
 45
0.0
 46
0.0
 47
0.0
 48
0.0
 49
0.0
140
0.0
141
0.0
142
1.0
143
1.0
 70
   688
 72
     0
 73
     0
 74
     5
  7
monochrome.ctb
 75
    16
147
1.0
148
0.0
149
0.0
100
AcDbLayout
  1
ﾚｲｱｳﾄ1
 70
     1
 71
     1
 10
0.0
 20
0.0
 11
420.0
 21
297.0
 12
0.0
 22
0.0
 32
0.0
 14
1.000000000000000E+20
 24
1.000000000000000E+20
 34
1.000000000000000E+20
 15
-1.000000000000000E+20
 25
-1.000000000000000E+20
 35
-1.000000000000000E+20
146
0.0
 13
0.0
 23
0.0
 33
0.0
 16
1.0
 26
0.0
 36
0.0
 17
0.0
 27
1.0
 37
0.0
 76
     0
330
C
  0
MLINESTYLE
  5
2C
102
{ACAD_REACTORS
330
28
102
}
330
28
100
AcDbMlineStyle
  2
STANDARD
 70
     0
  3

 62
   256
 51
90.0
 52
90.0
 71
     2
 49
0.5
 62
   256
  6
BYLAYER
 49
-0.5
 62
   256
  6
BYLAYER
  0
ACDBPLACEHOLDER
  5
5
102
{ACAD_REACTORS
330
6
102
}
330
6
  0
DICTIONARYVAR
  5
254
102
{ACAD_REACTORS
330
252
102
}
330
252
100
DictionaryVariables
280
     0
  1
1
  0
DICTIONARYVAR
  5
253
102
{ACAD_REACTORS
330
252
102
}
330
252
100
DictionaryVariables
280
     0
  1
1
  0
ENDSEC
  0
EOF
