  0
SECTION
  2
HEADER
  9
$ACADVER
  1
AC1015
  9
$ACADMAINTVER
 70
     6
  9
$DWGCODEPAGE
  3
ANSI_932
  9
$INSBASE
 10
0.0
 20
0.0
 30
0.0
  9
$EXTMIN
 10
0.0
 20
-0.0000000000011369
 30
-0.00000001
  9
$EXTMAX
 10
8245.600000000001
 20
5715.399999999999
 30
0.00000001
  9
$LIMMIN
 10
0.0
 20
0.0
  9
$LIMMAX
 10
8245.600000000001
 20
5715.399999999999
  9
$ORTHOMODE
 70
     0
  9
$REGENMODE
 70
     1
  9
$FILLMODE
 70
     1
  9
$QTEXTMODE
 70
     0
  9
$MIRRTEXT
 70
     0
  9
$LTSCALE
 40
10.0
  9
$ATTMODE
 70
     1
  9
$TEXTSIZE
 40
4.5
  9
$TRACEWID
 40
1.0
  9
$TEXTSTYLE
  7
表題
  9
$CLAYER
  8
AM_5
  9
$CELTYPE
  6
ByLayer
  9
$CECOLOR
 62
   256
  9
$CELTSCALE
 40
1.0
  9
$DISPSILH
 70
     0
  9
$DIMSCALE
 40
1.0
  9
$DIMASZ
 40
20.0
  9
$DIMEXO
 40
10.0
  9
$DIMDLI
 40
87.5
  9
$DIMRND
 40
0.0
  9
$DIMDLE
 40
0.0
  9
$DIMEXE
 40
10.0
  9
$DIMTP
 40
0.0
  9
$DIMTM
 40
0.000000001
  9
$DIMTXT
 40
35.0
  9
$DIMCEN
 40
0.09
  9
$DIMTSZ
 40
0.0
  9
$DIMTOL
 70
     0
  9
$DIMLIM
 70
     0
  9
$DIMTIH
 70
     0
  9
$DIMTOH
 70
     0
  9
$DIMSE1
 70
     0
  9
$DIMSE2
 70
     0
  9
$DIMTAD
 70
     1
  9
$DIMZIN
 70
     8
  9
$DIMBLK
  1
Open30
  9
$DIMASO
 70
     1
  9
$DIMSHO
 70
     1
  9
$DIMPOST
  1

  9
$DIMAPOST
  1

  9
$DIMALT
 70
     0
  9
$DIMALTD
 70
     3
  9
$DIMALTF
 40
25.4
  9
$DIMLFAC
 40
0.2
  9
$DIMTOFL
 70
     1
  9
$DIMTVP
 40
0.0
  9
$DIMTIX
 70
     0
  9
$DIMSOXD
 70
     0
  9
$DIMSAH
 70
     0
  9
$DIMBLK1
  1

  9
$DIMBLK2
  1

  9
$DIMSTYLE
  2
スタイル2
  9
$DIMCLRD
 70
     2
  9
$DIMCLRE
 70
     2
  9
$DIMCLRT
 70
     0
  9
$DIMTFAC
 40
1.0
  9
$DIMGAP
 40
5.0
  9
$DIMJUST
 70
     0
  9
$DIMSD1
 70
     0
  9
$DIMSD2
 70
     0
  9
$DIMTOLJ
 70
     1
  9
$DIMTZIN
 70
     0
  9
$DIMALTZ
 70
     0
  9
$DIMALTTZ
 70
     0
  9
$DIMUPT
 70
     0
  9
$DIMDEC
 70
     2
  9
$DIMTDEC
 70
     2
  9
$DIMALTU
 70
     2
  9
$DIMALTTD
 70
     3
  9
$DIMTXSTY
  7
スタイル１
  9
$DIMAUNIT
 70
     0
  9
$DIMADEC
 70
     0
  9
$DIMALTRND
 40
0.0
  9
$DIMAZIN
 70
     0
  9
$DIMDSEP
 70
    46
  9
$DIMATFIT
 70
     0
  9
$DIMFRAC
 70
     0
  9
$DIMLDRBLK
  1
Open30
  9
$DIMLUNIT
 70
     2
  9
$DIMLWD
 70
    -2
  9
$DIMLWE
 70
    -2
  9
$DIMTMOVE
 70
     0
  9
$LUNITS
 70
     2
  9
$LUPREC
 70
     4
  9
$SKETCHINC
 40
1.0
  9
$FILLETRAD
 40
10.0
  9
$AUNITS
 70
     0
  9
$AUPREC
 70
     0
  9
$MENU
  1
.
  9
$ELEVATION
 40
0.0
  9
$PELEVATION
 40
0.0
  9
$THICKNESS
 40
0.0
  9
$LIMCHECK
 70
     0
  9
$CHAMFERA
 40
10.0
  9
$CHAMFERB
 40
10.0
  9
$CHAMFERC
 40
20.0
  9
$CHAMFERD
 40
0.0
  9
$SKPOLY
 70
     0
  9
$TDCREATE
 40
2452325.282036805
  9
$TDUCREATE
 40
2452325.240370139
  9
$TDUPDATE
 40
2452717.639794849
  9
$TDUUPDATE
 40
2452717.598128182
  9
$TDINDWG
 40
2.3581687616
  9
$TDUSRTIMER
 40
2.3581687616
  9
$USRTIMER
 70
     1
  9
$ANGBASE
 50
0.0
  9
$ANGDIR
 70
     0
  9
$PDMODE
 70
     0
  9
$PDSIZE
 40
0.0
  9
$PLINEWID
 40
5.0
  9
$SPLFRAME
 70
     0
  9
$SPLINETYPE
 70
     6
  9
$SPLINESEGS
 70
     8
  9
$HANDSEED
  5
955
  9
$SURFTAB1
 70
     6
  9
$SURFTAB2
 70
     6
  9
$SURFTYPE
 70
     6
  9
$SURFU
 70
     6
  9
$SURFV
 70
     6
  9
$UCSBASE
  2

  9
$UCSNAME
  2

  9
$UCSORG
 10
0.0
 20
0.0
 30
0.0
  9
$UCSXDIR
 10
1.0
 20
0.0
 30
0.0
  9
$UCSYDIR
 10
0.0
 20
1.0
 30
0.0
  9
$UCSORTHOREF
  2

  9
$UCSORTHOVIEW
 70
     0
  9
$UCSORGTOP
 10
0.0
 20
0.0
 30
0.0
  9
$UCSORGBOTTOM
 10
0.0
 20
0.0
 30
0.0
  9
$UCSORGLEFT
 10
0.0
 20
0.0
 30
0.0
  9
$UCSORGRIGHT
 10
0.0
 20
0.0
 30
0.0
  9
$UCSORGFRONT
 10
0.0
 20
0.0
 30
0.0
  9
$UCSORGBACK
 10
0.0
 20
0.0
 30
0.0
  9
$PUCSBASE
  2

  9
$PUCSNAME
  2

  9
$PUCSORG
 10
0.0
 20
0.0
 30
0.0
  9
$PUCSXDIR
 10
1.0
 20
0.0
 30
0.0
  9
$PUCSYDIR
 10
0.0
 20
1.0
 30
0.0
  9
$PUCSORTHOREF
  2

  9
$PUCSORTHOVIEW
 70
     0
  9
$PUCSORGTOP
 10
0.0
 20
0.0
 30
0.0
  9
$PUCSORGBOTTOM
 10
0.0
 20
0.0
 30
0.0
  9
$PUCSORGLEFT
 10
0.0
 20
0.0
 30
0.0
  9
$PUCSORGRIGHT
 10
0.0
 20
0.0
 30
0.0
  9
$PUCSORGFRONT
 10
0.0
 20
0.0
 30
0.0
  9
$PUCSORGBACK
 10
0.0
 20
0.0
 30
0.0
  9
$USERI1
 70
     0
  9
$USERI2
 70
     0
  9
$USERI3
 70
     0
  9
$USERI4
 70
     0
  9
$USERI5
 70
     0
  9
$USERR1
 40
0.0
  9
$USERR2
 40
0.0
  9
$USERR3
 40
0.0
  9
$USERR4
 40
0.0
  9
$USERR5
 40
0.0
  9
$WORLDVIEW
 70
     1
  9
$SHADEDGE
 70
     3
  9
$SHADEDIF
 70
    70
  9
$TILEMODE
 70
     1
  9
$MAXACTVP
 70
    64
  9
$PINSBASE
 10
0.0
 20
0.0
 30
0.0
  9
$PLIMCHECK
 70
     0
  9
$PEXTMIN
 10
1.000000000000000E+20
 20
1.000000000000000E+20
 30
1.000000000000000E+20
  9
$PEXTMAX
 10
-1.000000000000000E+20
 20
-1.000000000000000E+20
 30
-1.000000000000000E+20
  9
$PLIMMIN
 10
0.0
 20
0.0
  9
$PLIMMAX
 10
420.0
 20
297.0
  9
$UNITMODE
 70
     0
  9
$VISRETAIN
 70
     1
  9
$PLINEGEN
 70
     0
  9
$PSLTSCALE
 70
     1
  9
$TREEDEPTH
 70
  3020
  9
$CMLSTYLE
  2
Standard
  9
$CMLJUST
 70
     0
  9
$CMLSCALE
 40
20.0
  9
$PROXYGRAPHICS
 70
     1
  9
$MEASUREMENT
 70
     1
  9
$CELWEIGHT
370
    -1
  9
$ENDCAPS
280
     0
  9
$JOINSTYLE
280
     0
  9
$LWDISPLAY
290
     0
  9
$INSUNITS
 70
     4
  9
$HYPERLINKBASE
  1

  9
$STYLESHEET
  1
monochrome.ctb
  9
$XEDIT
290
     1
  9
$CEPSNTYPE
380
     0
  9
$PSTYLEMODE
290
     1
  9
$FINGERPRINTGUID
  2
{6D68E142-2541-11D6-A2ED-90BA86E43932}
  9
$VERSIONGUID
  2
{0F545375-F071-4487-9F98-F70699144D01}
  9
$EXTNAMES
290
     1
  9
$PSVPSCALE
 40
0.0
  9
$OLESTARTUP
290
     0
  0
ENDSEC
  0
SECTION
  2
CLASSES
  0
CLASS
  1
ACDBDICTIONARYWDFLT
  2
AcDbDictionaryWithDefault
  3
AutoCAD 2000
 90
        0
280
     0
281
     0
  0
CLASS
  1
ACDBPLACEHOLDER
  2
AcDbPlaceHolder
  3
AutoCAD 2000
 90
        0
280
     0
281
     0
  0
CLASS
  1
LAYOUT
  2
AcDbLayout
  3
AutoCAD 2000
 90
        0
280
     0
281
     0
  0
CLASS
  1
DICTIONARYVAR
  2
AcDbDictionaryVar
  3
AutoCAD 2000
 90
        0
280
     0
281
     0
  0
CLASS
  1
AMDTACMWBLOCKBOMENTITY
  2
AmdtAcmWblockBomEntity
  3
"AcmSymBB|Product Description: AutoCAD Mechanical 2000|Company: Autodesk"
 90
    33791
280
     1
281
     1
  0
CLASS
  1
ACDB_PROXY_ENTITY_DATA
  2
AcDbProxyEntityData
  3
AutoCAD 2000
 90
    32768
280
     0
281
     0
  0
ENDSEC
  0
SECTION
  2
TABLES
  0
TABLE
  2
VPORT
  5
19
330
0
100
AcDbSymbolTable
 70
     3
  0
VPORT
  5
954
330
19
100
AcDbSymbolTableRecord
100
AcDbViewportTableRecord
  2
*Active
 70
     0
 10
0.0
 20
0.0
 11
1.0
 21
1.0
 12
4202.905442051226
 22
2738.043568847047
 13
0.0
 23
0.0
 14
10.0
 24
10.0
 15
10.0
 25
10.0
 16
0.0
 26
0.0
 36
1.0
 17
0.0
 27
0.0
 37
0.0
 40
5638.050582158324
 41
1.702127659574468
 42
50.0
 43
0.0
 44
0.0
 50
0.0
 51
0.0
 71
     0
 72
   100
 73
     1
 74
     3
 75
     0
 76
     0
 77
     0
 78
     0
281
     0
 65
     1
110
0.0
120
0.0
130
0.0
111
1.0
121
0.0
131
0.0
112
0.0
122
1.0
132
0.0
 79
     0
146
0.0
  0
ENDTAB
  0
TABLE
  2
LTYPE
  5
14
330
0
100
AcDbSymbolTable
 70
     4
  0
LTYPE
  5
15
330
14
100
AcDbSymbolTableRecord
100
AcDbLinetypeTableRecord
  2
ByBlock
 70
     0
  3

 72
    65
 73
     0
 40
0.0
  0
LTYPE
  5
16
330
14
100
AcDbSymbolTableRecord
100
AcDbLinetypeTableRecord
  2
ByLayer
 70
     0
  3

 72
    65
 73
     0
 40
0.0
  0
LTYPE
  5
8
330
14
100
AcDbSymbolTableRecord
100
AcDbLinetypeTableRecord
  2
Continuous
 70
     0
  3
Solid line
 72
    65
 73
     0
 40
0.0
  0
LTYPE
  5
D1
330
14
100
AcDbSymbolTableRecord
100
AcDbLinetypeTableRecord
  2
AM_ISO02W050
 70
     0
  3
__ __ __ __ __ __ __ __ __ __ __ __ __ __ __
 72
    65
 73
     2
 40
7.5
 49
6.0
 74
     0
 49
-1.5
 74
     0
  0
LTYPE
  5
44
330
14
100
AcDbSymbolTableRecord
100
AcDbLinetypeTableRecord
  2
AM_ISO08W050
 70
     0
  3
____ . ____ . ____ . ____ . ____ . ____ . ____
 72
    65
 73
     4
 40
18.0
 49
12.0
 74
     0
 49
-1.5
 74
     0
 49
3.0
 74
     0
 49
-1.5
 74
     0
  0
LTYPE
  5
232
330
14
100
AcDbSymbolTableRecord
100
AcDbLinetypeTableRecord
  2
CENTERX2
 70
     0
  3
Center (2x) ________  __  ________  __  _____
 72
    65
 73
     4
 40
101.6
 49
63.5
 74
     0
 49
-12.7
 74
     0
 49
12.7
 74
     0
 49
-12.7
 74
     0
  0
ENDTAB
  0
TABLE
  2
LAYER
  5
10
330
0
100
AcDbSymbolTable
 70
    15
  0
LAYER
  5
4
330
10
100
AcDbSymbolTableRecord
100
AcDbLayerTableRecord
  2
0
 70
     0
 62
    -7
  6
Continuous
370
    -3
390
5
  0
LAYER
  5
3C
330
10
100
AcDbSymbolTableRecord
100
AcDbLayerTableRecord
  2
DEFPOINTS
 70
     0
 62
     7
  6
Continuous
290
     0
370
    -3
390
5
  0
LAYER
  5
91
330
10
100
AcDbSymbolTableRecord
100
AcDbLayerTableRecord
  2
A1枠
 70
     0
 62
     7
  6
Continuous
370
    50
390
5
  0
LAYER
  5
32
330
10
100
AcDbSymbolTableRecord
100
AcDbLayerTableRecord
  2
AM_0
 70
     0
 62
     7
  6
Continuous
370
    50
390
5
  0
LAYER
  5
D0
330
10
100
AcDbSymbolTableRecord
100
AcDbLayerTableRecord
  2
AM_3
 70
     0
 62
     6
  6
AM_ISO02W050
370
    20
390
5
  0
LAYER
  5
2A
330
10
100
AcDbSymbolTableRecord
100
AcDbLayerTableRecord
  2
AM_5
 70
     0
 62
     3
  6
Continuous
370
    18
390
5
  0
LAYER
  5
43
330
10
100
AcDbSymbolTableRecord
100
AcDbLayerTableRecord
  2
AM_7
 70
     0
 62
     4
  6
AM_ISO08W050
370
    18
390
5
  0
LAYER
  5
174
330
10
100
AcDbSymbolTableRecord
100
AcDbLayerTableRecord
  2
細線
 70
     0
 62
     2
  6
Continuous
370
    18
390
5
  0
LAYER
  5
315
330
10
100
AcDbSymbolTableRecord
100
AcDbLayerTableRecord
  2
AM_2
 70
     0
 62
     5
  6
Continuous
370
    50
390
5
  0
LAYER
  5
73
330
10
100
AcDbSymbolTableRecord
100
AcDbLayerTableRecord
  2
AM_6
 70
     0
 62
     2
  6
Continuous
370
    35
390
5
  0
LAYER
  5
4D2
330
10
100
AcDbSymbolTableRecord
100
AcDbLayerTableRecord
  2
AM_8
 70
     0
 62
     1
  6
Continuous
370
    18
390
5
  0
LAYER
  5
8F
330
10
100
AcDbSymbolTableRecord
100
AcDbLayerTableRecord
  2
図面範囲
 70
     0
 62
    -7
  6
Continuous
290
     0
370
    -3
390
5
  0
LAYER
  5
10B
330
10
100
AcDbSymbolTableRecord
100
AcDbLayerTableRecord
  2
実線
 70
     0
 62
     6
  6
Continuous
370
    50
390
5
  0
LAYER
  5
49
330
10
100
AcDbSymbolTableRecord
100
AcDbLayerTableRecord
  2
ノゾキ窓
 70
     0
 62
     1
  6
Continuous
370
    -3
390
5
  0
LAYER
  5
B2
330
10
100
AcDbSymbolTableRecord
100
AcDbLayerTableRecord
  2
固定ノズル
 70
     0
 62
   211
  6
Continuous
370
    -3
390
5
  0
ENDTAB
  0
TABLE
  2
STYLE
  5
11
330
0
100
AcDbSymbolTable
 70
     6
  0
STYLE
  5
12
330
11
100
AcDbSymbolTableRecord
100
AcDbTextStyleTableRecord
  2
Standard
 70
     0
 40
0.0
 41
1.0
 50
0.0
 71
     0
 42
2.5
  3
txt
  4

  0
STYLE
  5
1F
330
11
100
AcDbSymbolTableRecord
100
AcDbTextStyleTableRecord
  2
スタイル１
 70
     0
 40
0.0
 41
1.0
 50
0.0
 71
     0
 42
4.5
  3
MS Gothic.ttf
  4

1001
ACAD
1000
MS Gothic
1071
    32817
  0
STYLE
  5
2B
330
11
100
AcDbSymbolTableRecord
100
AcDbTextStyleTableRecord
  2
表題
 70
     0
 40
0.0
 41
1.0
 50
0.0
 71
     0
 42
4.5
  3
MS PMincho.ttf
  4

1001
ACAD
1000
MS PMincho
1071
    32786
  0
STYLE
  5
356
330
11
100
AcDbSymbolTableRecord
100
AcDbTextStyleTableRecord
  2
大陽東洋酸素
 70
     0
 40
0.0
 41
0.8
 50
0.0
 71
     0
 42
4.5
  3
MS Mincho.ttf
  4

1001
ACAD
1000
MS Mincho
1071
    32785
  0
STYLE
  5
9B
330
11
100
AcDbSymbolTableRecord
100
AcDbTextStyleTableRecord
  2
TITLE
 70
     0
 40
0.0
 41
1.0
 50
0.0
 71
     0
 42
0.8
  3
MS Mincho.ttf
  4

1001
ACAD
1000
MS Mincho
1071
    32785
  0
STYLE
  5
A2
330
11
100
AcDbSymbolTableRecord
100
AcDbTextStyleTableRecord
  2
MSゴシック
 70
     0
 40
0.0
 41
1.0
 50
0.0
 71
     0
 42
2.5
  3
MS Gothic.ttf
  4

1001
ACAD
1000
MS Gothic
1071
    32817
  0
ENDTAB
  0
TABLE
  2
VIEW
  5
17
330
0
100
AcDbSymbolTable
 70
     0
  0
ENDTAB
  0
TABLE
  2
UCS
  5
18
330
0
100
AcDbSymbolTable
 70
     0
  0
ENDTAB
  0
TABLE
  2
APPID
  5
1B
330
0
100
AcDbSymbolTable
 70
     1
  0
APPID
  5
1C
330
1B
100
AcDbSymbolTableRecord
100
AcDbRegAppTableRecord
  2
ACAD
 70
     0
  0
ENDTAB
  0
TABLE
  2
DIMSTYLE
  5
1D
330
0
100
AcDbSymbolTable
 70
     3
100
AcDbDimStyleTable
 71
     1
340
1E
  0
DIMSTYLE
105
1E
102
{ACAD_REACTORS
330
50A
330
154
330
147
330
49C
330
33
330
4E
330
529
330
119
330
161
330
4D4
330
51C
330
145
330
111
330
10F
330
519
330
4BF
330
4B8
330
78
330
FD
330
4F4
330
4E3
330
55D
330
5CC
330
5B1
330
59E
330
590
330
572
330
54E
330
581
330
5EE
330
5E1
330
539
330
487
330
629
330
60C
330
2E9
330
27A
330
289
330
260
330
254
330
2C6
330
2A6
330
1BB
330
1EC
330
1AE
330
1FA
330
41A
330
40D
330
207
330
1C8
330
1D9
330
319
330
451
330
2F7
330
705
330
712
330
71F
330
234
330
217
330
224
330
400
330
427
330
434
330
442
330
7C6
330
7A3
330
794
330
80F
330
8BE
330
8EA
102
}
330
1D
100
AcDbSymbolTableRecord
100
AcDbDimStyleTableRecord
  2
スタイル2
 70
     0
 41
20.0
 42
10.0
 43
87.5
 44
10.0
 48
0.000000001
 73
     0
 74
     0
 77
     1
 78
     8
140
35.0
147
5.0
171
     3
172
     1
176
     2
177
     2
271
     2
272
     2
274
     3
289
     0
340
1F
341
20
342
20
  0
DIMSTYLE
105
5D
102
{ACAD_REACTORS
330
5C
330
66
330
63C
102
}
330
1D
100
AcDbSymbolTableRecord
100
AcDbDimStyleTableRecord
  2
スタイル2$4
 70
     0
 41
20.0
 42
10.0
 43
87.5
 44
10.0
 48
0.000000001
 73
     0
 74
     0
 77
     1
 78
     8
140
35.0
147
5.0
171
     3
176
     2
177
     2
271
     2
272
     2
274
     3
288
     1
289
     0
340
1F
341
20
342
20
  0
DIMSTYLE
105
180
102
{ACAD_REACTORS
330
18E
330
1A3
330
17F
330
26C
330
297
102
}
330
1D
100
AcDbSymbolTableRecord
100
AcDbDimStyleTableRecord
  2
スタイル2$3
 70
     0
  3
φ<>
 41
20.0
 42
10.0
 43
87.5
 44
10.0
 48
0.000000001
 73
     0
 74
     0
 77
     1
 78
     8
140
35.0
147
5.0
171
     3
172
     1
176
     2
177
     2
271
     2
272
     2
274
     3
289
     0
340
1F
341
20
342
20
  0
ENDTAB
  0
TABLE
  2
BLOCK_RECORD
  5
1
330
0
100
AcDbSymbolTable
 70
    82
  0
BLOCK_RECORD
  5
2
330
1
100
AcDbSymbolTableRecord
100
AcDbBlockTableRecord
  2
*Model_Space
340
A
  0
BLOCK_RECORD
  5
C
330
1
100
AcDbSymbolTableRecord
100
AcDbBlockTableRecord
  2
*Paper_Space
340
F
  0
BLOCK_RECORD
  5
20
330
1
100
AcDbSymbolTableRecord
100
AcDbBlockTableRecord
  2
_Open30
340
0
102
{BLKREFS
331
7D
331
7E
331
69
331
60
331
102
331
103
331
2AB
331
2AC
331
29C
331
29D
331
2EE
331
2EF
331
28E
331
28F
331
27F
331
280
331
2CB
331
2CC
331
271
331
272
331
264
331
265
331
258
331
259
331
11E
331
11F
331
166
331
167
331
159
331
15A
331
14C
331
14D
331
53
331
54
331
4A1
331
4A2
331
191
331
192
331
183
331
184
331
38
331
39
331
564
331
565
331
5B8
331
5AA
331
589
331
555
331
1A6
331
1A7
331
20E
331
20F
331
1FF
331
200
331
456
331
457
331
1F1
331
1F2
331
2FE
331
2FF
331
320
331
321
331
1E5
331
1D2
331
1C0
331
1C1
331
1B3
331
1B4
331
41F
331
420
331
412
331
413
331
48C
331
48D
331
62E
331
62F
331
53F
331
540
331
5E6
331
5E7
331
5CF
331
5D0
331
5F5
331
5F6
331
63F
331
613
331
614
331
65E
331
65F
331
66A
331
66B
331
678
331
679
331
688
331
689
331
697
331
698
331
6A3
331
6A4
331
6C8
331
70A
331
70B
331
717
331
718
331
724
331
725
331
733
331
734
331
73F
331
740
331
74B
331
74C
331
757
331
758
331
763
331
764
331
76F
331
770
331
77D
331
77E
331
87C
331
87D
331
885
331
886
331
89B
331
89C
331
8B1
331
8B2
331
8D7
331
8D8
331
8EF
331
8F0
331
919
331
91A
331
922
331
923
331
92D
331
92E
331
938
331
939
331
943
331
944
102
}
  0
BLOCK_RECORD
  5
1DA
330
1
100
AcDbSymbolTableRecord
100
AcDbBlockTableRecord
  2
_DotSmall
340
0
102
{BLKREFS
331
588
331
57A
331
57B
331
1E4
102
}
  0
BLOCK_RECORD
  5
1C9
330
1
100
AcDbSymbolTableRecord
100
AcDbBlockTableRecord
  2
_None
340
0
  0
BLOCK_RECORD
  5
4B9
330
1
100
AcDbSymbolTableRecord
100
AcDbBlockTableRecord
  2
_Dot
340
0
  0
BLOCK_RECORD
  5
11A
330
1
100
AcDbSymbolTableRecord
100
AcDbBlockTableRecord
  2
*D4
340
0
  0
BLOCK_RECORD
  5
162
330
1
100
AcDbSymbolTableRecord
100
AcDbBlockTableRecord
  2
*D5
340
0
  0
BLOCK_RECORD
  5
155
330
1
100
AcDbSymbolTableRecord
100
AcDbBlockTableRecord
  2
*D9
340
0
  0
BLOCK_RECORD
  5
148
330
1
100
AcDbSymbolTableRecord
100
AcDbBlockTableRecord
  2
*D10
340
0
  0
BLOCK_RECORD
  5
49D
330
1
100
AcDbSymbolTableRecord
100
AcDbBlockTableRecord
  2
*D11
340
0
  0
BLOCK_RECORD
  5
34
330
1
100
AcDbSymbolTableRecord
100
AcDbBlockTableRecord
  2
*D12
340
0
  0
BLOCK_RECORD
  5
4F
330
1
100
AcDbSymbolTableRecord
100
AcDbBlockTableRecord
  2
*D13
340
0
  0
BLOCK_RECORD
  5
79
330
1
100
AcDbSymbolTableRecord
100
AcDbBlockTableRecord
  2
*D14
340
0
  0
BLOCK_RECORD
  5
5E
330
1
100
AcDbSymbolTableRecord
100
AcDbBlockTableRecord
  2
*D15
340
0
  0
BLOCK_RECORD
  5
FE
330
1
100
AcDbSymbolTableRecord
100
AcDbBlockTableRecord
  2
*D16
340
0
  0
BLOCK_RECORD
  5
67
330
1
100
AcDbSymbolTableRecord
100
AcDbBlockTableRecord
  2
*D17
340
0
  0
BLOCK_RECORD
  5
55E
330
1
100
AcDbSymbolTableRecord
100
AcDbBlockTableRecord
  2
*D18
340
0
  0
BLOCK_RECORD
  5
5CD
330
1
100
AcDbSymbolTableRecord
100
AcDbBlockTableRecord
  2
*D19
340
0
  0
BLOCK_RECORD
  5
5B2
330
1
100
AcDbSymbolTableRecord
100
AcDbBlockTableRecord
  2
*D20
340
0
  0
BLOCK_RECORD
  5
5A3
330
1
100
AcDbSymbolTableRecord
100
AcDbBlockTableRecord
  2
*D21
340
0
  0
BLOCK_RECORD
  5
59F
330
1
100
AcDbSymbolTableRecord
100
AcDbBlockTableRecord
  2
_Oblique
340
0
102
{BLKREFS
331
5A9
102
}
  0
BLOCK_RECORD
  5
582
330
1
100
AcDbSymbolTableRecord
100
AcDbBlockTableRecord
  2
*D23
340
0
  0
BLOCK_RECORD
  5
591
330
1
100
AcDbSymbolTableRecord
100
AcDbBlockTableRecord
  2
*D24
340
0
  0
BLOCK_RECORD
  5
573
330
1
100
AcDbSymbolTableRecord
100
AcDbBlockTableRecord
  2
*D25
340
0
  0
BLOCK_RECORD
  5
54F
330
1
100
AcDbSymbolTableRecord
100
AcDbBlockTableRecord
  2
*D26
340
0
  0
BLOCK_RECORD
  5
5EF
330
1
100
AcDbSymbolTableRecord
100
AcDbBlockTableRecord
  2
*D27
340
0
  0
BLOCK_RECORD
  5
5E2
330
1
100
AcDbSymbolTableRecord
100
AcDbBlockTableRecord
  2
*D28
340
0
  0
BLOCK_RECORD
  5
53A
330
1
100
AcDbSymbolTableRecord
100
AcDbBlockTableRecord
  2
*D29
340
0
  0
BLOCK_RECORD
  5
488
330
1
100
AcDbSymbolTableRecord
100
AcDbBlockTableRecord
  2
*D30
340
0
  0
BLOCK_RECORD
  5
62A
330
1
100
AcDbSymbolTableRecord
100
AcDbBlockTableRecord
  2
*D31
340
0
  0
BLOCK_RECORD
  5
63D
330
1
100
AcDbSymbolTableRecord
100
AcDbBlockTableRecord
  2
*D32
340
0
  0
BLOCK_RECORD
  5
60D
330
1
100
AcDbSymbolTableRecord
100
AcDbBlockTableRecord
  2
*D33
340
0
  0
BLOCK_RECORD
  5
2EA
330
1
100
AcDbSymbolTableRecord
100
AcDbBlockTableRecord
  2
*D36
340
0
  0
BLOCK_RECORD
  5
27B
330
1
100
AcDbSymbolTableRecord
100
AcDbBlockTableRecord
  2
*D37
340
0
  0
BLOCK_RECORD
  5
28A
330
1
100
AcDbSymbolTableRecord
100
AcDbBlockTableRecord
  2
*D38
340
0
  0
BLOCK_RECORD
  5
261
330
1
100
AcDbSymbolTableRecord
100
AcDbBlockTableRecord
  2
*D39
340
0
  0
BLOCK_RECORD
  5
255
330
1
100
AcDbSymbolTableRecord
100
AcDbBlockTableRecord
  2
*D40
340
0
  0
BLOCK_RECORD
  5
2C7
330
1
100
AcDbSymbolTableRecord
100
AcDbBlockTableRecord
  2
*D41
340
0
  0
BLOCK_RECORD
  5
2A7
330
1
100
AcDbSymbolTableRecord
100
AcDbBlockTableRecord
  2
*D42
340
0
  0
BLOCK_RECORD
  5
1BC
330
1
100
AcDbSymbolTableRecord
100
AcDbBlockTableRecord
  2
*D43
340
0
  0
BLOCK_RECORD
  5
1ED
330
1
100
AcDbSymbolTableRecord
100
AcDbBlockTableRecord
  2
*D44
340
0
  0
BLOCK_RECORD
  5
1AF
330
1
100
AcDbSymbolTableRecord
100
AcDbBlockTableRecord
  2
*D45
340
0
  0
BLOCK_RECORD
  5
1FB
330
1
100
AcDbSymbolTableRecord
100
AcDbBlockTableRecord
  2
*D46
340
0
  0
BLOCK_RECORD
  5
41B
330
1
100
AcDbSymbolTableRecord
100
AcDbBlockTableRecord
  2
*D47
340
0
  0
BLOCK_RECORD
  5
40E
330
1
100
AcDbSymbolTableRecord
100
AcDbBlockTableRecord
  2
*D48
340
0
  0
BLOCK_RECORD
  5
1CC
330
1
100
AcDbSymbolTableRecord
100
AcDbBlockTableRecord
  2
*D49
340
0
  0
BLOCK_RECORD
  5
1DE
330
1
100
AcDbSymbolTableRecord
100
AcDbBlockTableRecord
  2
*D50
340
0
  0
BLOCK_RECORD
  5
208
330
1
100
AcDbSymbolTableRecord
100
AcDbBlockTableRecord
  2
*D51
340
0
  0
BLOCK_RECORD
  5
31A
330
1
100
AcDbSymbolTableRecord
100
AcDbBlockTableRecord
  2
*D52
340
0
  0
BLOCK_RECORD
  5
452
330
1
100
AcDbSymbolTableRecord
100
AcDbBlockTableRecord
  2
*D53
340
0
  0
BLOCK_RECORD
  5
2F8
330
1
100
AcDbSymbolTableRecord
100
AcDbBlockTableRecord
  2
*D54
340
0
  0
BLOCK_RECORD
  5
65A
330
1
100
AcDbSymbolTableRecord
100
AcDbBlockTableRecord
  2
*D55
340
0
  0
BLOCK_RECORD
  5
666
330
1
100
AcDbSymbolTableRecord
100
AcDbBlockTableRecord
  2
*D56
340
0
  0
BLOCK_RECORD
  5
672
330
1
100
AcDbSymbolTableRecord
100
AcDbBlockTableRecord
  2
*D57
340
0
  0
BLOCK_RECORD
  5
682
330
1
100
AcDbSymbolTableRecord
100
AcDbBlockTableRecord
  2
*D58
340
0
  0
BLOCK_RECORD
  5
691
330
1
100
AcDbSymbolTableRecord
100
AcDbBlockTableRecord
  2
*D59
340
0
  0
BLOCK_RECORD
  5
69F
330
1
100
AcDbSymbolTableRecord
100
AcDbBlockTableRecord
  2
*D60
340
0
  0
BLOCK_RECORD
  5
706
330
1
100
AcDbSymbolTableRecord
100
AcDbBlockTableRecord
  2
*D61
340
0
  0
BLOCK_RECORD
  5
713
330
1
100
AcDbSymbolTableRecord
100
AcDbBlockTableRecord
  2
*D62
340
0
  0
BLOCK_RECORD
  5
720
330
1
100
AcDbSymbolTableRecord
100
AcDbBlockTableRecord
  2
*D63
340
0
  0
BLOCK_RECORD
  5
72D
330
1
100
AcDbSymbolTableRecord
100
AcDbBlockTableRecord
  2
*D64
340
0
  0
BLOCK_RECORD
  5
73B
330
1
100
AcDbSymbolTableRecord
100
AcDbBlockTableRecord
  2
*D65
340
0
  0
BLOCK_RECORD
  5
747
330
1
100
AcDbSymbolTableRecord
100
AcDbBlockTableRecord
  2
*D66
340
0
  0
BLOCK_RECORD
  5
753
330
1
100
AcDbSymbolTableRecord
100
AcDbBlockTableRecord
  2
*D67
340
0
  0
BLOCK_RECORD
  5
75F
330
1
100
AcDbSymbolTableRecord
100
AcDbBlockTableRecord
  2
*D68
340
0
  0
BLOCK_RECORD
  5
76B
330
1
100
AcDbSymbolTableRecord
100
AcDbBlockTableRecord
  2
*D69
340
0
  0
BLOCK_RECORD
  5
777
330
1
100
AcDbSymbolTableRecord
100
AcDbBlockTableRecord
  2
*D70
340
0
  0
BLOCK_RECORD
  5
795
330
1
100
AcDbSymbolTableRecord
100
AcDbBlockTableRecord
  2
*D71
340
0
  0
BLOCK_RECORD
  5
7A4
330
1
100
AcDbSymbolTableRecord
100
AcDbBlockTableRecord
  2
*D72
340
0
  0
BLOCK_RECORD
  5
7C7
330
1
100
AcDbSymbolTableRecord
100
AcDbBlockTableRecord
  2
*D73
340
0
  0
BLOCK_RECORD
  5
810
330
1
100
AcDbSymbolTableRecord
100
AcDbBlockTableRecord
  2
*D74
340
0
  0
BLOCK_RECORD
  5
8BF
330
1
100
AcDbSymbolTableRecord
100
AcDbBlockTableRecord
  2
*D75
340
0
  0
BLOCK_RECORD
  5
8EB
330
1
100
AcDbSymbolTableRecord
100
AcDbBlockTableRecord
  2
*D76
340
0
  0
BLOCK_RECORD
  5
915
330
1
100
AcDbSymbolTableRecord
100
AcDbBlockTableRecord
  2
*D77
340
0
  0
BLOCK_RECORD
  5
920
330
1
100
AcDbSymbolTableRecord
100
AcDbBlockTableRecord
  2
*D78
340
0
  0
BLOCK_RECORD
  5
929
330
1
100
AcDbSymbolTableRecord
100
AcDbBlockTableRecord
  2
*D79
340
0
  0
BLOCK_RECORD
  5
934
330
1
100
AcDbSymbolTableRecord
100
AcDbBlockTableRecord
  2
*D80
340
0
  0
BLOCK_RECORD
  5
93F
330
1
100
AcDbSymbolTableRecord
100
AcDbBlockTableRecord
  2
*D81
340
0
  0
ENDTAB
  0
ENDSEC
  0
SECTION
  2
BLOCKS
  0
BLOCK
  5
3
330
2
100
AcDbEntity
  8
0
100
AcDbBlockBegin
  2
*Model_Space
 70
     2
 10
0.0
 20
0.0
 30
0.0
  3
*Model_Space
  1

  0
ENDBLK
  5
9
330
2
100
AcDbEntity
  8
0
100
AcDbBlockEnd
  0
BLOCK
  5
D
330
C
100
AcDbEntity
 67
     1
  8
0
100
AcDbBlockBegin
  2
*Paper_Space
 70
     0
 10
0.0
 20
0.0
 30
0.0
  3
*Paper_Space
  1

  0
ENDBLK
  5
E
330
C
100
AcDbEntity
 67
     1
  8
0
100
AcDbBlockEnd
  0
BLOCK
  5
24
330
20
100
AcDbEntity
  8
0
100
AcDbBlockBegin
  2
_Open30
 70
     0
 10
0.0
 20
0.0
 30
0.0
  3
_Open30
  1

  0
LINE
  5
21
330
20
100
AcDbEntity
  8
0
 62
     0
370
    -2
380
     1
100
AcDbLine
 10
-1.0
 20
0.26794919
 30
0.0
 11
0.0
 21
0.0
 31
0.0
  0
LINE
  5
22
330
20
100
AcDbEntity
  8
0
 62
     0
370
    -2
380
     1
100
AcDbLine
 10
0.0
 20
0.0
 30
0.0
 11
-1.0
 21
-0.26794919
 31
0.0
  0
LINE
  5
23
330
20
100
AcDbEntity
  8
0
 62
     0
370
    -2
380
     1
100
AcDbLine
 10
0.0
 20
0.0
 30
0.0
 11
-1.0
 21
0.0
 31
0.0
  0
ENDBLK
  5
25
330
20
100
AcDbEntity
  8
0
100
AcDbBlockEnd
  0
BLOCK
  5
1DC
330
1DA
100
AcDbEntity
  8
0
100
AcDbBlockBegin
  2
_DotSmall
 70
     0
 10
0.0
 20
0.0
 30
0.0
  3
_DotSmall
  1

  0
LWPOLYLINE
  5
1DB
330
1DA
100
AcDbEntity
  8
0
  6
ByBlock
 62
     0
100
AcDbPolyline
 90
        2
 70
     1
 43
0.5
 10
-0.0625
 20
0.0
 42
1.0
 10
0.0625
 20
0.0
 42
1.0
  0
ENDBLK
  5
1DD
330
1DA
100
AcDbEntity
  8
0
100
AcDbBlockEnd
  0
BLOCK
  5
1CA
330
1C9
100
AcDbEntity
  8
0
100
AcDbBlockBegin
  2
_None
 70
     0
 10
0.0
 20
0.0
 30
0.0
  3
_None
  1

  0
ENDBLK
  5
1CB
330
1C9
100
AcDbEntity
  8
0
100
AcDbBlockEnd
  0
BLOCK
  5
4BC
330
4B9
100
AcDbEntity
  8
0
100
AcDbBlockBegin
  2
_Dot
 70
     0
 10
0.0
 20
0.0
 30
0.0
  3
_Dot
  1

  0
LWPOLYLINE
  5
4BA
330
4B9
100
AcDbEntity
  8
0
  6
ByBlock
 62
     0
100
AcDbPolyline
 90
        2
 70
     1
 43
0.5
 10
-0.25
 20
0.0
 42
1.0
 10
0.25
 20
0.0
 42
1.0
  0
LINE
  5
4BB
330
4B9
100
AcDbEntity
  8
0
  6
ByBlock
 62
     0
370
    -2
100
AcDbLine
 10
-0.5
 20
0.0
 30
0.0
 11
-1.0
 21
0.0
 31
0.0
  0
ENDBLK
  5
4BD
330
4B9
100
AcDbEntity
  8
0
100
AcDbBlockEnd
  0
BLOCK
  5
124
330
11A
100
AcDbEntity
  8
0
100
AcDbBlockBegin
  2
*D4
 70
     1
 10
0.0
 20
0.0
 30
0.0
  3
*D4
  1

  0
LINE
  5
11B
330
11A
100
AcDbEntity
  8
AM_5
 62
     2
370
    -2
100
AcDbLine
 10
1349.901484391981
 20
5439.672662317305
 30
0.0
 11
627.16469019927
 21
5439.672662317305
 31
0.0
  0
LINE
  5
11C
330
11A
100
AcDbEntity
  8
AM_5
 62
     2
370
    -2
100
AcDbLine
 10
856.22509623119
 20
4959.672662317306
 30
0.0
 11
627.1646901992698
 21
4959.672662317306
 31
0.0
  0
LINE
  5
11D
330
11A
100
AcDbEntity
  8
AM_5
 62
     2
370
    -2
100
AcDbLine
 10
637.16469019927
 20
5419.672662317306
 30
0.0
 11
637.1646901992699
 21
4979.672662317305
 31
0.0
  0
INSERT
  5
11E
330
11A
100
AcDbEntity
  8
AM_5
 62
     2
370
    -2
100
AcDbBlockReference
  2
_Open30
 10
637.16469019927
 20
5439.672662317305
 30
0.0
 41
20.0
 42
20.0
 43
20.0
 50
90.0
  0
INSERT
  5
11F
330
11A
100
AcDbEntity
  8
AM_5
 62
     2
370
    -2
100
AcDbBlockReference
  2
_Open30
 10
637.1646901992699
 20
4959.672662317306
 30
0.0
 41
20.0
 42
20.0
 43
20.0
 50
270.0
  0
MTEXT
  5
120
330
11A
100
AcDbEntity
  8
AM_5
 62
     0
100
AcDbMText
 10
614.664690199269
 20
5199.672662317305
 30
0.0
 40
35.0
 41
0.0
 71
     5
 72
     1
  1
\A1;480
  7
スタイル１
 11
0.0000000000000001
 21
1.0
 31
0.0
 73
     1
 44
1.0
  0
POINT
  5
121
330
11A
100
AcDbEntity
  8
DEFPOINTS
 62
     0
100
AcDbPoint
 10
1359.901484391981
 20
5439.672662317305
 30
0.0
  0
POINT
  5
122
330
11A
100
AcDbEntity
  8
DEFPOINTS
 62
     0
100
AcDbPoint
 10
866.2250962311899
 20
4959.672662317306
 30
0.0
  0
POINT
  5
123
330
11A
100
AcDbEntity
  8
DEFPOINTS
 62
     0
100
AcDbPoint
 10
637.1646901992699
 20
4959.672662317306
 30
0.0
  0
ENDBLK
  5
125
330
11A
100
AcDbEntity
  8
0
100
AcDbBlockEnd
  0
BLOCK
  5
16C
330
162
100
AcDbEntity
  8
0
100
AcDbBlockBegin
  2
*D5
 70
     1
 10
0.0
 20
0.0
 30
0.0
  3
*D5
  1

  0
LINE
  5
163
330
162
100
AcDbEntity
  8
AM_5
 62
     2
370
    -2
100
AcDbLine
 10
856.22509623119
 20
4959.672662317306
 30
0.0
 11
627.16469019927
 21
4959.672662317306
 31
0.0
  0
LINE
  5
164
330
162
100
AcDbEntity
  8
AM_5
 62
     2
370
    -2
100
AcDbLine
 10
1349.901484391981
 20
4479.672662317305
 30
0.0
 11
627.1646901992698
 21
4479.672662317305
 31
0.0
  0
LINE
  5
165
330
162
100
AcDbEntity
  8
AM_5
 62
     2
370
    -2
100
AcDbLine
 10
637.16469019927
 20
4939.672662317305
 30
0.0
 11
637.1646901992699
 21
4499.672662317305
 31
0.0
  0
INSERT
  5
166
330
162
100
AcDbEntity
  8
AM_5
 62
     2
370
    -2
100
AcDbBlockReference
  2
_Open30
 10
637.16469019927
 20
4959.672662317306
 30
0.0
 41
20.0
 42
20.0
 43
20.0
 50
90.0
  0
INSERT
  5
167
330
162
100
AcDbEntity
  8
AM_5
 62
     2
370
    -2
100
AcDbBlockReference
  2
_Open30
 10
637.1646901992699
 20
4479.672662317305
 30
0.0
 41
20.0
 42
20.0
 43
20.0
 50
270.0
  0
MTEXT
  5
168
330
162
100
AcDbEntity
  8
AM_5
 62
     0
100
AcDbMText
 10
614.6646901992692
 20
4719.672662317305
 30
0.0
 40
35.0
 41
0.0
 71
     5
 72
     1
  1
\A1;480
  7
スタイル１
 11
0.0000000000000001
 21
1.0
 31
0.0
 73
     1
 44
1.0
  0
POINT
  5
169
330
162
100
AcDbEntity
  8
DEFPOINTS
 62
     0
100
AcDbPoint
 10
866.2250962311899
 20
4959.672662317306
 30
0.0
  0
POINT
  5
16A
330
162
100
AcDbEntity
  8
DEFPOINTS
 62
     0
100
AcDbPoint
 10
1359.901484391981
 20
4479.672662317305
 30
0.0
  0
POINT
  5
16B
330
162
100
AcDbEntity
  8
DEFPOINTS
 62
     0
100
AcDbPoint
 10
637.1646901992699
 20
4479.672662317305
 30
0.0
  0
ENDBLK
  5
16D
330
162
100
AcDbEntity
  8
0
100
AcDbBlockEnd
  0
BLOCK
  5
15F
330
155
100
AcDbEntity
  8
0
100
AcDbBlockBegin
  2
*D9
 70
     1
 10
0.0
 20
0.0
 30
0.0
  3
*D9
  1

  0
LINE
  5
156
330
155
100
AcDbEntity
  8
AM_5
 62
     2
370
    -2
100
AcDbLine
 10
806.22509623119
 20
4959.672662317306
 30
0.0
 11
726.5924854789355
 21
4959.672662317306
 31
0.0
  0
LINE
  5
157
330
155
100
AcDbEntity
  8
AM_5
 62
     2
370
    -2
100
AcDbLine
 10
1278.225096231191
 20
4709.672662317305
 30
0.0
 11
726.5924854789354
 21
4709.672662317305
 31
0.0
  0
LINE
  5
158
330
155
100
AcDbEntity
  8
AM_5
 62
     2
370
    -2
100
AcDbLine
 10
736.5924854789356
 20
4939.672662317305
 30
0.0
 11
736.5924854789355
 21
4729.672662317305
 31
0.0
  0
INSERT
  5
159
330
155
100
AcDbEntity
  8
AM_5
 62
     2
370
    -2
100
AcDbBlockReference
  2
_Open30
 10
736.5924854789356
 20
4959.672662317306
 30
0.0
 41
20.0
 42
20.0
 43
20.0
 50
90.0
  0
INSERT
  5
15A
330
155
100
AcDbEntity
  8
AM_5
 62
     2
370
    -2
100
AcDbBlockReference
  2
_Open30
 10
736.5924854789355
 20
4709.672662317305
 30
0.0
 41
20.0
 42
20.0
 43
20.0
 50
270.0
  0
MTEXT
  5
15B
330
155
100
AcDbEntity
  8
AM_5
 62
     0
100
AcDbMText
 10
714.0924854789347
 20
4834.672662317306
 30
0.0
 40
35.0
 41
0.0
 71
     5
 72
     1
  1
\A1;250
  7
スタイル１
 11
0.0000000000000001
 21
1.0
 31
0.0
 73
     1
 44
1.0
  0
POINT
  5
15C
330
155
100
AcDbEntity
  8
DEFPOINTS
 62
     0
100
AcDbPoint
 10
816.2250962311899
 20
4959.672662317306
 30
0.0
  0
POINT
  5
15D
330
155
100
AcDbEntity
  8
DEFPOINTS
 62
     0
100
AcDbPoint
 10
1288.225096231191
 20
4709.672662317305
 30
0.0
  0
POINT
  5
15E
330
155
100
AcDbEntity
  8
DEFPOINTS
 62
     0
100
AcDbPoint
 10
736.5924854789355
 20
4709.672662317305
 30
0.0
  0
ENDBLK
  5
160
330
155
100
AcDbEntity
  8
0
100
AcDbBlockEnd
  0
BLOCK
  5
152
330
148
100
AcDbEntity
  8
0
100
AcDbBlockBegin
  2
*D10
 70
     1
 10
0.0
 20
0.0
 30
0.0
  3
*D10
  1

  0
LINE
  5
149
330
148
100
AcDbEntity
  8
AM_5
 62
     2
370
    -2
100
AcDbLine
 10
1278.225096231191
 20
5209.672662317306
 30
0.0
 11
726.5924854789354
 21
5209.672662317306
 31
0.0
  0
LINE
  5
14A
330
148
100
AcDbEntity
  8
AM_5
 62
     2
370
    -2
100
AcDbLine
 10
806.22509623119
 20
4959.672662317306
 30
0.0
 11
726.5924854789354
 21
4959.672662317306
 31
0.0
  0
LINE
  5
14B
330
148
100
AcDbEntity
  8
AM_5
 62
     2
370
    -2
100
AcDbLine
 10
736.5924854789355
 20
5189.672662317305
 30
0.0
 11
736.5924854789355
 21
4979.672662317305
 31
0.0
  0
INSERT
  5
14C
330
148
100
AcDbEntity
  8
AM_5
 62
     2
370
    -2
100
AcDbBlockReference
  2
_Open30
 10
736.5924854789355
 20
5209.672662317306
 30
0.0
 41
20.0
 42
20.0
 43
20.0
 50
90.0
  0
INSERT
  5
14D
330
148
100
AcDbEntity
  8
AM_5
 62
     2
370
    -2
100
AcDbBlockReference
  2
_Open30
 10
736.5924854789355
 20
4959.672662317306
 30
0.0
 41
20.0
 42
20.0
 43
20.0
 50
270.0
  0
MTEXT
  5
14E
330
148
100
AcDbEntity
  8
AM_5
 62
     0
100
AcDbMText
 10
714.0924854789346
 20
5084.672662317306
 30
0.0
 40
35.0
 41
0.0
 71
     5
 72
     1
  1
\A1;250
  7
スタイル１
 11
0.0000000000000001
 21
1.0
 31
0.0
 73
     1
 44
1.0
  0
POINT
  5
14F
330
148
100
AcDbEntity
  8
DEFPOINTS
 62
     0
100
AcDbPoint
 10
1288.225096231191
 20
5209.672662317306
 30
0.0
  0
POINT
  5
150
330
148
100
AcDbEntity
  8
DEFPOINTS
 62
     0
100
AcDbPoint
 10
816.2250962311899
 20
4959.672662317306
 30
0.0
  0
POINT
  5
151
330
148
100
AcDbEntity
  8
DEFPOINTS
 62
     0
100
AcDbPoint
 10
736.5924854789355
 20
4959.672662317306
 30
0.0
  0
ENDBLK
  5
153
330
148
100
AcDbEntity
  8
0
100
AcDbBlockEnd
  0
BLOCK
  5
4A7
330
49D
100
AcDbEntity
  8
0
100
AcDbBlockBegin
  2
*D11
 70
     1
 10
0.0
 20
0.0
 30
0.0
  3
*D11
  1

  0
LINE
  5
49E
330
49D
100
AcDbEntity
  8
AM_5
 62
     2
370
    -2
100
AcDbLine
 10
2011.225096231191
 20
5594.672662317305
 30
0.0
 11
2326.488818480588
 21
5594.672662317305
 31
0.0
  0
LINE
  5
49F
330
49D
100
AcDbEntity
  8
AM_5
 62
     2
370
    -2
100
AcDbLine
 10
2011.225096231191
 20
4324.672662317305
 30
0.0
 11
2326.488818480587
 21
4324.672662317304
 31
0.0
  0
LINE
  5
4A0
330
49D
100
AcDbEntity
  8
AM_5
 62
     2
370
    -2
100
AcDbLine
 10
2316.488818480588
 20
5574.672662317304
 30
0.0
 11
2316.488818480587
 21
4344.672662317304
 31
0.0
  0
INSERT
  5
4A1
330
49D
100
AcDbEntity
  8
AM_5
 62
     2
370
    -2
100
AcDbBlockReference
  2
_Open30
 10
2316.488818480588
 20
5594.672662317305
 30
0.0
 41
20.0
 42
20.0
 43
20.0
 50
90.0
  0
INSERT
  5
4A2
330
49D
100
AcDbEntity
  8
AM_5
 62
     2
370
    -2
100
AcDbBlockReference
  2
_Open30
 10
2316.488818480587
 20
4324.672662317304
 30
0.0
 41
20.0
 42
20.0
 43
20.0
 50
270.0
  0
MTEXT
  5
4A3
330
49D
100
AcDbEntity
  8
AM_5
 62
     0
100
AcDbMText
 10
2293.988818480587
 20
4959.672662317306
 30
0.0
 40
35.0
 41
0.0
 71
     5
 72
     1
  1
\A1;1270
  7
スタイル１
 11
0.0000000000000001
 21
1.0
 31
0.0
 73
     1
 44
1.0
  0
POINT
  5
4A4
330
49D
100
AcDbEntity
  8
DEFPOINTS
 62
     0
100
AcDbPoint
 10
2001.225096231191
 20
5594.672662317305
 30
0.0
  0
POINT
  5
4A5
330
49D
100
AcDbEntity
  8
DEFPOINTS
 62
     0
100
AcDbPoint
 10
2001.225096231191
 20
4324.672662317305
 30
0.0
  0
POINT
  5
4A6
330
49D
100
AcDbEntity
  8
DEFPOINTS
 62
     0
100
AcDbPoint
 10
2316.488818480587
 20
4324.672662317304
 30
0.0
  0
ENDBLK
  5
4A8
330
49D
100
AcDbEntity
  8
0
100
AcDbBlockEnd
  0
BLOCK
  5
3F
330
34
100
AcDbEntity
  8
0
100
AcDbBlockBegin
  2
*D12
 70
     1
 10
0.0
 20
0.0
 30
0.0
  3
*D12
  1

  0
LINE
  5
35
330
34
100
AcDbEntity
  8
AM_5
 62
     2
370
    -2
100
AcDbLine
 10
2061.225096231191
 20
4959.672662317306
 30
0.0
 11
2238.988818480587
 21
4959.672662317306
 31
0.0
  0
LINE
  5
36
330
34
100
AcDbEntity
  8
AM_5
 62
     2
370
    -2
100
AcDbLine
 10
1902.225096231191
 20
4548.672662317305
 30
0.0
 11
2238.988818480587
 21
4548.672662317304
 31
0.0
  0
LINE
  5
37
330
34
100
AcDbEntity
  8
AM_5
 62
     2
370
    -2
100
AcDbLine
 10
2228.988818480587
 20
4939.672662317305
 30
0.0
 11
2228.988818480587
 21
4568.672662317304
 31
0.0
  0
INSERT
  5
38
330
34
100
AcDbEntity
  8
AM_5
 62
     2
370
    -2
100
AcDbBlockReference
  2
_Open30
 10
2228.988818480587
 20
4959.672662317306
 30
0.0
 41
20.0
 42
20.0
 43
20.0
 50
90.0
  0
INSERT
  5
39
330
34
100
AcDbEntity
  8
AM_5
 62
     2
370
    -2
100
AcDbBlockReference
  2
_Open30
 10
2228.988818480587
 20
4548.672662317304
 30
0.0
 41
20.0
 42
20.0
 43
20.0
 50
270.0
  0
MTEXT
  5
3A
330
34
100
AcDbEntity
  8
AM_5
 62
     0
100
AcDbMText
 10
2206.488818480587
 20
4754.172662317305
 30
0.0
 40
35.0
 41
0.0
 71
     5
 72
     1
  1
\A1;411
  7
スタイル１
 11
0.0000000000000001
 21
1.0
 31
0.0
 73
     1
 44
1.0
  0
POINT
  5
3B
330
34
100
AcDbEntity
  8
DEFPOINTS
 62
     0
100
AcDbPoint
 10
2051.225096231191
 20
4959.672662317306
 30
0.0
  0
POINT
  5
3D
330
34
100
AcDbEntity
  8
DEFPOINTS
 62
     0
100
AcDbPoint
 10
1892.225096231191
 20
4548.672662317305
 30
0.0
  0
POINT
  5
3E
330
34
100
AcDbEntity
  8
DEFPOINTS
 62
     0
100
AcDbPoint
 10
2228.988818480587
 20
4548.672662317304
 30
0.0
  0
ENDBLK
  5
40
330
34
100
AcDbEntity
  8
0
100
AcDbBlockEnd
  0
BLOCK
  5
59
330
4F
100
AcDbEntity
  8
0
100
AcDbBlockBegin
  2
*D13
 70
     1
 10
0.0
 20
0.0
 30
0.0
  3
*D13
  1

  0
LINE
  5
50
330
4F
100
AcDbEntity
  8
AM_5
 62
     2
370
    -2
100
AcDbLine
 10
1902.225096231191
 20
5370.672662317305
 30
0.0
 11
2238.988818480588
 21
5370.672662317304
 31
0.0
  0
LINE
  5
51
330
4F
100
AcDbEntity
  8
AM_5
 62
     2
370
    -2
100
AcDbLine
 10
2061.225096231191
 20
4959.672662317306
 30
0.0
 11
2238.988818480587
 21
4959.672662317306
 31
0.0
  0
LINE
  5
52
330
4F
100
AcDbEntity
  8
AM_5
 62
     2
370
    -2
100
AcDbLine
 10
2228.988818480588
 20
5350.672662317304
 30
0.0
 11
2228.988818480587
 21
4979.672662317305
 31
0.0
  0
INSERT
  5
53
330
4F
100
AcDbEntity
  8
AM_5
 62
     2
370
    -2
100
AcDbBlockReference
  2
_Open30
 10
2228.988818480588
 20
5370.672662317304
 30
0.0
 41
20.0
 42
20.0
 43
20.0
 50
90.0
  0
INSERT
  5
54
330
4F
100
AcDbEntity
  8
AM_5
 62
     2
370
    -2
100
AcDbBlockReference
  2
_Open30
 10
2228.988818480587
 20
4959.672662317306
 30
0.0
 41
20.0
 42
20.0
 43
20.0
 50
270.0
  0
MTEXT
  5
55
330
4F
100
AcDbEntity
  8
AM_5
 62
     0
100
AcDbMText
 10
2206.488818480587
 20
5165.172662317305
 30
0.0
 40
35.0
 41
0.0
 71
     5
 72
     1
  1
\A1;411
  7
スタイル１
 11
0.0000000000000001
 21
1.0
 31
0.0
 73
     1
 44
1.0
  0
POINT
  5
56
330
4F
100
AcDbEntity
  8
DEFPOINTS
 62
     0
100
AcDbPoint
 10
1892.225096231191
 20
5370.672662317305
 30
0.0
  0
POINT
  5
57
330
4F
100
AcDbEntity
  8
DEFPOINTS
 62
     0
100
AcDbPoint
 10
2051.225096231191
 20
4959.672662317306
 30
0.0
  0
POINT
  5
58
330
4F
100
AcDbEntity
  8
DEFPOINTS
 62
     0
100
AcDbPoint
 10
2228.988818480587
 20
4959.672662317306
 30
0.0
  0
ENDBLK
  5
5A
330
4F
100
AcDbEntity
  8
0
100
AcDbBlockEnd
  0
BLOCK
  5
83
330
79
100
AcDbEntity
  8
0
100
AcDbBlockBegin
  2
*D14
 70
     1
 10
0.0
 20
0.0
 30
0.0
  3
*D14
  1

  0
LINE
  5
7A
330
79
100
AcDbEntity
  8
AM_5
 62
     2
370
    -2
100
AcDbLine
 10
1466.225096231593
 20
961.4275623845596
 30
0.0
 11
1466.225096231593
 21
936.1903144069936
 31
0.0
  0
LINE
  5
7B
330
79
100
AcDbEntity
  8
AM_5
 62
     2
370
    -2
100
AcDbLine
 10
2001.22509623154
 20
1032.538547075467
 30
0.0
 11
2001.22509623154
 21
936.1903144069936
 31
0.0
  0
LINE
  5
7C
330
79
100
AcDbEntity
  8
AM_5
 62
     2
370
    -2
100
AcDbLine
 10
1486.225096231593
 20
946.1903144069935
 30
0.0
 11
1981.22509623154
 21
946.1903144069935
 31
0.0
  0
INSERT
  5
7D
330
79
100
AcDbEntity
  8
AM_5
 62
     2
370
    -2
100
AcDbBlockReference
  2
_Open30
 10
1466.225096231593
 20
946.1903144069935
 30
0.0
 41
20.0
 42
20.0
 43
20.0
 50
180.0
  0
INSERT
  5
7E
330
79
100
AcDbEntity
  8
AM_5
 62
     2
370
    -2
100
AcDbBlockReference
  2
_Open30
 10
2001.22509623154
 20
946.1903144069935
 30
0.0
 41
20.0
 42
20.0
 43
20.0
  0
MTEXT
  5
7F
330
79
100
AcDbEntity
  8
AM_5
 62
     0
100
AcDbMText
 10
1733.725096231567
 20
968.6903144069935
 30
0.0
 40
35.0
 41
0.0
 71
     5
 72
     1
  1
\A1;535
  7
スタイル１
 73
     1
 44
1.0
  0
POINT
  5
80
330
79
100
AcDbEntity
  8
DEFPOINTS
 62
     0
100
AcDbPoint
 10
1466.225096231593
 20
971.4275623845596
 30
0.0
  0
POINT
  5
81
330
79
100
AcDbEntity
  8
DEFPOINTS
 62
     0
100
AcDbPoint
 10
2001.22509623154
 20
1042.538547075468
 30
0.0
  0
POINT
  5
82
330
79
100
AcDbEntity
  8
DEFPOINTS
 62
     0
100
AcDbPoint
 10
2001.22509623154
 20
946.1903144069935
 30
0.0
  0
ENDBLK
  5
84
330
79
100
AcDbEntity
  8
0
100
AcDbBlockEnd
  0
BLOCK
  5
64
330
5E
100
AcDbEntity
  8
0
100
AcDbBlockBegin
  2
*D15
 70
     1
 10
0.0
 20
0.0
 30
0.0
  3
*D15
  1

  0
LINE
  5
5F
330
5E
100
AcDbEntity
  8
AM_5
 62
     2
370
    -2
100
AcDbLine
 10
2116.225096231141
 20
2237.015420019875
 30
0.0
 11
1104.407742219949
 21
2828.462494678138
 31
0.0
  0
INSERT
  5
60
330
5E
100
AcDbEntity
  8
AM_5
 62
     2
370
    -2
100
AcDbBlockReference
  2
_Open30
 10
1087.141234472319
 20
2838.5554481706
 30
0.0
 41
20.0
 42
20.0
 43
20.0
 50
149.6920329863766
  0
MTEXT
  5
61
330
5E
100
AcDbEntity
  8
AM_5
 62
     0
100
AcDbMText
 10
1350.715330059525
 20
2710.548029363947
 30
0.0
 40
35.0
 41
0.0
 71
     5
 72
     1
  1
\A1;R1192
  7
スタイル１
 11
0.8633253873815544
 21
-0.5046476746230868
 31
0.0
 73
     1
 44
1.0
  0
POINT
  5
62
330
5E
100
AcDbEntity
  8
DEFPOINTS
 62
     0
100
AcDbPoint
 10
1087.141234472319
 20
2838.5554481706
 30
0.0
  0
POINT
  5
63
330
5E
100
AcDbEntity
  8
DEFPOINTS
 62
     0
100
AcDbPoint
 10
2116.225096231141
 20
2237.015420019875
 30
0.0
  0
ENDBLK
  5
65
330
5E
100
AcDbEntity
  8
0
100
AcDbBlockEnd
  0
BLOCK
  5
108
330
FE
100
AcDbEntity
  8
0
100
AcDbBlockBegin
  2
*D16
 70
     1
 10
0.0
 20
0.0
 30
0.0
  3
*D16
  1

  0
LINE
  5
FF
330
FE
100
AcDbEntity
  8
AM_5
 62
     2
370
    -2
100
AcDbLine
 10
1104.407742219948
 20
2828.462494678126
 30
0.0
 11
1121.674249967573
 21
2818.369541185652
 31
0.0
  0
LINE
  5
100
330
FE
100
AcDbEntity
  8
AM_5
 62
     2
370
    -2
100
AcDbLine
 10
1062.968123625655
 20
2852.68558306006
 30
0.0
 11
1001.330196856535
 21
2888.715377697532
 31
0.0
  0
LINE
  5
101
330
FE
100
AcDbEntity
  8
AM_5
 62
     2
370
    -2
100
AcDbLine
 10
1087.141234472324
 20
2838.5554481706
 30
0.0
 11
1080.234631373279
 21
2842.592629567587
 31
0.0
  0
INSERT
  5
102
330
FE
100
AcDbEntity
  8
AM_5
 62
     2
370
    -2
100
AcDbBlockReference
  2
_Open30
 10
1087.141234472324
 20
2838.5554481706
 30
0.0
 41
20.0
 42
20.0
 43
20.0
 50
149.6920329863373
  0
INSERT
  5
103
330
FE
100
AcDbEntity
  8
AM_5
 62
     2
370
    -2
100
AcDbBlockReference
  2
_Open30
 10
1080.234631373279
 20
2842.592629567587
 30
0.0
 41
20.0
 42
20.0
 43
20.0
 50
329.6920329863373
  0
MTEXT
  5
104
330
FE
100
AcDbEntity
  8
AM_5
 62
     0
100
AcDbMText
 10
1034.870479046315
 20
2895.17177834111
 30
0.0
 40
35.0
 41
0.0
 71
     5
 72
     1
  1
\A1;t8
  7
スタイル１
 11
0.863325387381208
 21
-0.5046476746236796
 31
0.0
 73
     1
 44
1.0
  0
POINT
  5
105
330
FE
100
AcDbEntity
  8
DEFPOINTS
 62
     0
100
AcDbPoint
 10
1080.234631373279
 20
2842.592629567587
 30
0.0
  0
POINT
  5
106
330
FE
100
AcDbEntity
  8
DEFPOINTS
 62
     0
100
AcDbPoint
 10
1087.141234472324
 20
2838.5554481706
 30
0.0
  0
POINT
  5
107
330
FE
100
AcDbEntity
  8
DEFPOINTS
 62
     0
100
AcDbPoint
 10
1087.141234472324
 20
2838.5554481706
 30
0.0
  0
ENDBLK
  5
109
330
FE
100
AcDbEntity
  8
0
100
AcDbBlockEnd
  0
BLOCK
  5
6D
330
67
100
AcDbEntity
  8
0
100
AcDbBlockBegin
  2
*D17
 70
     1
 10
0.0
 20
0.0
 30
0.0
  3
*D17
  1

  0
LINE
  5
68
330
67
100
AcDbEntity
  8
AM_5
 62
     2
370
    -2
100
AcDbLine
 10
2116.225096231139
 20
2237.015420019874
 30
0.0
 11
1048.72778667594
 21
2739.856840442275
 31
0.0
  0
INSERT
  5
69
330
67
100
AcDbEntity
  8
AM_5
 62
     2
370
    -2
100
AcDbBlockReference
  2
_Open30
 10
1030.634611937717
 20
2748.379576381638
 30
0.0
 41
20.0
 42
20.0
 43
20.0
 50
154.7773598106132
  0
MTEXT
  5
6A
330
67
100
AcDbEntity
  8
AM_5
 62
     0
100
AcDbMText
 10
1310.110408688212
 20
2641.604593820609
 30
0.0
 40
35.0
 41
0.0
 71
     5
 72
     1
  1
\A1;R1200
  7
スタイル１
 11
0.9046587369111838
 21
-0.4261367969681355
 31
0.0
 73
     1
 44
1.0
  0
POINT
  5
6B
330
67
100
AcDbEntity
  8
DEFPOINTS
 62
     0
100
AcDbPoint
 10
1030.634611937717
 20
2748.379576381638
 30
0.0
  0
POINT
  5
6C
330
67
100
AcDbEntity
  8
DEFPOINTS
 62
     0
100
AcDbPoint
 10
2116.225096231139
 20
2237.015420019874
 30
0.0
  0
ENDBLK
  5
6E
330
67
100
AcDbEntity
  8
0
100
AcDbBlockEnd
  0
BLOCK
  5
56A
330
55E
100
AcDbEntity
  8
0
100
AcDbBlockBegin
  2
*D18
 70
     1
 10
0.0
 20
0.0
 30
0.0
  3
*D18
  1

  0
LINE
  5
55F
330
55E
100
AcDbEntity
  8
AM_5
 62
     2
370
    -2
100
AcDbLine
 10
4129.92708446306
 20
4190.008124750033
 30
0.0
 11
4211.395458884053
 21
4237.334375057293
 31
0.0
  0
LINE
  5
560
330
55E
100
AcDbEntity
  8
AM_5
 62
     2
370
    -2
100
AcDbLine
 10
4134.950188422345
 20
4181.361250944191
 30
0.0
 11
4216.418562843338
 21
4228.687501251451
 31
0.0
  0
LINE
  5
561
330
55E
100
AcDbEntity
  8
AM_5
 62
     2
370
    -2
100
AcDbLine
 10
4217.817896956066
 20
4206.370649680475
 30
0.0
 11
4227.864104874638
 21
4189.076902068785
 31
0.0
  0
LINE
  5
562
330
55E
100
AcDbEntity
  8
AM_5
 62
     2
370
    -2
100
AcDbLine
 10
4192.702377159636
 20
4249.605018709696
 30
0.0
 11
4168.530282979925
 21
4291.215355602797
 31
0.0
  0
LINE
  5
563
330
55E
100
AcDbEntity
  8
AM_5
 62
     2
370
    -2
100
AcDbLine
 10
4207.771689037492
 20
4223.664397292164
 30
0.0
 11
4202.748585078208
 21
4232.311271098007
 31
0.0
  0
INSERT
  5
564
330
55E
100
AcDbEntity
  8
AM_5
 62
     2
370
    -2
100
AcDbBlockReference
  2
_Open30
 10
4207.771689037492
 20
4223.664397292164
 30
0.0
 41
20.0
 42
20.0
 43
20.0
 50
120.1529726460395
  0
INSERT
  5
565
330
55E
100
AcDbEntity
  8
AM_5
 62
     2
370
    -2
100
AcDbBlockReference
  2
_Open30
 10
4202.748585078208
 20
4232.311271098007
 30
0.0
 41
20.0
 42
20.0
 43
20.0
 50
300.1529726460395
  0
MTEXT
  5
566
330
55E
100
AcDbEntity
  8
AM_5
 62
     0
100
AcDbMText
 10
4195.048692173645
 20
4290.359044870485
 30
0.0
 40
35.0
 41
0.0
 71
     5
 72
     1
  1
\A1;2
  7
スタイル１
 11
0.5023103959286118
 21
-0.8646873805844752
 31
0.0
 73
     1
 44
1.0
  0
POINT
  5
567
330
55E
100
AcDbEntity
  8
DEFPOINTS
 62
     0
100
AcDbPoint
 10
4121.280210657215
 20
4184.985020790747
 30
0.0
  0
POINT
  5
568
330
55E
100
AcDbEntity
  8
DEFPOINTS
 62
     0
100
AcDbPoint
 10
4126.3033146165
 20
4176.338146984904
 30
0.0
  0
POINT
  5
569
330
55E
100
AcDbEntity
  8
DEFPOINTS
 62
     0
100
AcDbPoint
 10
4207.771689037492
 20
4223.664397292164
 30
0.0
  0
ENDBLK
  5
56B
330
55E
100
AcDbEntity
  8
0
100
AcDbBlockEnd
  0
BLOCK
  5
5D5
330
5CD
100
AcDbEntity
  8
0
100
AcDbBlockBegin
  2
*D19
 70
     1
 10
0.0
 20
0.0
 30
0.0
  3
*D19
  1

  0
LINE
  5
5CE
330
5CD
100
AcDbEntity
  8
AM_5
 62
     2
370
    -2
100
AcDbLine
 10
4371.22781885568
 20
4389.325819443554
 30
0.0
 11
4395.184118331371
 21
4334.31585929604
 31
0.0
  0
INSERT
  5
5CF
330
5CD
100
AcDbEntity
  8
AM_5
 62
     2
370
    -2
100
AcDbBlockReference
  2
_Open30
 10
4363.242385697116
 20
4407.662472826058
 30
0.0
 41
20.0
 42
20.0
 43
20.0
 50
113.5326541926554
  0
INSERT
  5
5D0
330
5CD
100
AcDbEntity
  8
AM_5
 62
     2
370
    -2
100
AcDbBlockReference
  2
_Open30
 10
4403.169551489934
 20
4315.979205913536
 30
0.0
 41
20.0
 42
20.0
 43
20.0
 50
293.5326541926554
  0
MTEXT
  5
5D1
330
5CD
100
AcDbEntity
  8
AM_5
 62
     0
100
AcDbMText
 10
4403.834703648843
 20
4370.804451673182
 30
0.0
 40
35.0
 41
0.0
 71
     5
 72
     1
  1
\A1;20
  7
スタイル１
 11
0.3992716579281866
 21
-0.9168326691252211
 31
0.0
 73
     1
 44
1.0
  0
POINT
  5
5D2
330
5CD
100
AcDbEntity
  8
DEFPOINTS
 62
     0
100
AcDbPoint
 10
4363.242385697116
 20
4407.662472826058
 30
0.0
  0
POINT
  5
5D3
330
5CD
100
AcDbEntity
  8
DEFPOINTS
 62
     0
100
AcDbPoint
 10
4403.169551489934
 20
4315.979205913536
 30
0.0
  0
POINT
  5
5D4
330
5CD
100
AcDbEntity
  8
DEFPOINTS
 62
     0
100
AcDbPoint
 10
4403.169551489934
 20
4315.979205913536
 30
0.0
  0
ENDBLK
  5
5D6
330
5CD
100
AcDbEntity
  8
0
100
AcDbBlockEnd
  0
BLOCK
  5
5BD
330
5B2
100
AcDbEntity
  8
0
100
AcDbBlockBegin
  2
*D20
 70
     1
 10
0.0
 20
0.0
 30
0.0
  3
*D20
  1

  0
LINE
  5
5B3
330
5B2
100
AcDbEntity
  8
AM_5
 62
     2
370
    -2
100
AcDbLine
 10
4042.725574371223
 20
4126.115912653232
 30
0.0
 11
3883.764836659747
 21
4027.479266331353
 31
0.0
  0
LINE
  5
5B4
330
5B2
100
AcDbEntity
  8
AM_5
 62
     2
370
    -2
100
AcDbLine
 10
4041.407443508592
 20
4128.240184535308
 30
0.0
 11
3882.446705797116
 21
4029.603538213431
 31
0.0
  0
LINE
  5
5B5
330
5B2
100
AcDbEntity
  8
AM_5
 62
     2
370
    -2
100
AcDbLine
 10
3890.943793325424
 20
4034.87606166395
 30
0.0
 11
3869.853699523345
 21
4068.864411777179
 31
0.0
  0
LINE
  5
5B6
330
5B2
100
AcDbEntity
  8
AM_5
 62
     2
370
    -2
100
AcDbLine
 10
3902.806971089093
 20
4015.757614725258
 30
0.0
 11
3964.243913122944
 21
3916.747135429676
 31
0.0
  0
LINE
  5
5B7
330
5B2
100
AcDbEntity
  8
AM_5
 62
     2
370
    -2
100
AcDbLine
 10
3890.943793325424
 20
4034.87606166395
 30
0.0
 11
3892.261924188053
 21
4032.751789781873
 31
0.0
  0
INSERT
  5
5B8
330
5B2
100
AcDbEntity
  8
AM_5
 62
     2
370
    -2
100
AcDbBlockReference
  2
_Open30
 10
3892.261924188053
 20
4032.751789781873
 30
0.0
 41
20.0
 42
20.0
 43
20.0
 50
121.8199941436921
  0
MTEXT
  5
5B9
330
5B2
100
AcDbEntity
  8
AM_5
 62
     0
100
AcDbMText
 10
3957.91641249523
 20
3969.61846531283
 30
0.0
 40
35.0
 41
0.0
 71
     5
 72
     1
  1
\A1;t0.5
  7
スタイル１
 11
0.5272523450519913
 21
-0.8497087528307424
 31
0.0
 73
     1
 44
1.0
  0
POINT
  5
5BA
330
5B2
100
AcDbEntity
  8
DEFPOINTS
 62
     0
100
AcDbPoint
 10
4051.222661899529
 20
4131.388436103753
 30
0.0
  0
POINT
  5
5BB
330
5B2
100
AcDbEntity
  8
DEFPOINTS
 62
     0
100
AcDbPoint
 10
4049.9045310369
 20
4133.512707985829
 30
0.0
  0
POINT
  5
5BC
330
5B2
100
AcDbEntity
  8
DEFPOINTS
 62
     0
100
AcDbPoint
 10
3890.943793325424
 20
4034.87606166395
 30
0.0
  0
ENDBLK
  5
5BE
330
5B2
100
AcDbEntity
  8
0
100
AcDbBlockEnd
  0
BLOCK
  5
5AF
330
5A3
100
AcDbEntity
  8
0
100
AcDbBlockBegin
  2
*D21
 70
     1
 10
0.0
 20
0.0
 30
0.0
  3
*D21
  1

  0
LINE
  5
5A4
330
5A3
100
AcDbEntity
  8
AM_5
 62
     2
370
    -2
100
AcDbLine
 10
4041.407443508588
 20
4128.240184535314
 30
0.0
 11
3882.446705797041
 21
4029.603538213537
 31
0.0
  0
LINE
  5
5A5
330
5A3
100
AcDbEntity
  8
AM_5
 62
     2
370
    -2
100
AcDbLine
 10
4033.498658332809
 20
4140.985815827776
 30
0.0
 11
3874.53792062127
 21
4042.349169506003
 31
0.0
  0
LINE
  5
5A6
330
5A3
100
AcDbEntity
  8
AM_5
 62
     2
370
    -2
100
AcDbLine
 10
3890.943793325352
 20
4034.876061664051
 30
0.0
 11
3901.488840226381
 21
4017.881886607429
 31
0.0
  0
LINE
  5
5A7
330
5A3
100
AcDbEntity
  8
AM_5
 62
     2
370
    -2
100
AcDbLine
 10
3872.489961248552
 20
4064.615868013139
 30
0.0
 11
3847.117614897853
 21
4105.505405966635
 31
0.0
  0
LINE
  5
5A8
330
5A3
100
AcDbEntity
  8
AM_5
 62
     2
370
    -2
100
AcDbLine
 10
3890.943793325352
 20
4034.876061664051
 30
0.0
 11
3883.03500814958
 21
4047.621692956517
 31
0.0
  0
INSERT
  5
5A9
330
5A3
100
AcDbEntity
  8
AM_5
 62
     2
370
    -2
100
AcDbBlockReference
  2
_Oblique
 10
3890.943793325352
 20
4034.876061664051
 30
0.0
 41
20.0
 42
20.0
 43
20.0
 50
121.8199941436544
  0
INSERT
  5
5AA
330
5A3
100
AcDbEntity
  8
AM_5
 62
     2
370
    -2
100
AcDbBlockReference
  2
_Open30
 10
3883.03500814958
 20
4047.621692956517
 30
0.0
 41
20.0
 42
20.0
 43
20.0
 50
301.8199941436544
  0
MTEXT
  5
5AB
330
5A3
100
AcDbEntity
  8
AM_5
 62
     0
100
AcDbMText
 10
3873.649711561388
 20
4105.420902281855
 30
0.0
 40
35.0
 41
0.0
 71
     5
 72
     1
  1
\A1;3
  7
スタイル１
 11
0.5272523450514328
 21
-0.849708752831089
 31
0.0
 73
     1
 44
1.0
  0
POINT
  5
5AC
330
5A3
100
AcDbEntity
  8
DEFPOINTS
 62
     0
100
AcDbPoint
 10
4049.904531036899
 20
4133.512707985829
 30
0.0
  0
POINT
  5
5AD
330
5A3
100
AcDbEntity
  8
DEFPOINTS
 62
     0
100
AcDbPoint
 10
4041.99574586112
 20
4146.258339278291
 30
0.0
  0
POINT
  5
5AE
330
5A3
100
AcDbEntity
  8
DEFPOINTS
 62
     0
100
AcDbPoint
 10
3883.03500814958
 20
4047.621692956517
 30
0.0
  0
ENDBLK
  5
5B0
330
5A3
100
AcDbEntity
  8
0
100
AcDbBlockEnd
  0
BLOCK
  5
5A1
330
59F
100
AcDbEntity
  8
0
100
AcDbBlockBegin
  2
_Oblique
 70
     0
 10
0.0
 20
0.0
 30
0.0
  3
_Oblique
  1

  0
LINE
  5
5A0
330
59F
100
AcDbEntity
  8
0
  6
ByBlock
 62
     0
370
    -2
100
AcDbLine
 10
-0.5
 20
-0.5
 30
0.0
 11
0.5
 21
0.5
 31
0.0
  0
ENDBLK
  5
5A2
330
59F
100
AcDbEntity
  8
0
100
AcDbBlockEnd
  0
BLOCK
  5
58E
330
582
100
AcDbEntity
  8
0
100
AcDbBlockBegin
  2
*D23
 70
     1
 10
0.0
 20
0.0
 30
0.0
  3
*D23
  1

  0
LINE
  5
583
330
582
100
AcDbEntity
  8
AM_5
 62
     2
370
    -2
100
AcDbLine
 10
4055.417233103933
 20
4124.628553667565
 30
0.0
 11
4107.419659723436
 21
4040.822540319864
 31
0.0
  0
LINE
  5
584
330
582
100
AcDbEntity
  8
AM_5
 62
     2
370
    -2
100
AcDbLine
 10
4097.966168060767
 20
4151.030571606907
 30
0.0
 11
4149.968594680269
 21
4067.224558259206
 31
0.0
  0
LINE
  5
585
330
582
100
AcDbEntity
  8
AM_5
 62
     2
370
    -2
100
AcDbLine
 10
4144.696071229749
 20
4075.721645787512
 30
0.0
 11
4178.68442134298
 21
4096.811739589591
 31
0.0
  0
LINE
  5
586
330
582
100
AcDbEntity
  8
AM_5
 62
     2
370
    -2
100
AcDbLine
 10
4085.152961216301
 20
4038.774580947133
 30
0.0
 11
4026.298768666171
 21
4002.254995930718
 31
0.0
  0
LINE
  5
587
330
582
100
AcDbEntity
  8
AM_5
 62
     2
370
    -2
100
AcDbLine
 10
4144.696071229749
 20
4075.721645787512
 30
0.0
 11
4102.147136272917
 21
4049.319627848173
 31
0.0
  0
INSERT
  5
588
330
582
100
AcDbEntity
  8
AM_5
 62
     2
370
    -2
100
AcDbBlockReference
  2
_DotSmall
 10
4144.696071229749
 20
4075.721645787512
 30
0.0
 41
20.0
 42
20.0
 43
20.0
 50
211.8199941436896
  0
INSERT
  5
589
330
582
100
AcDbEntity
  8
AM_5
 62
     2
370
    -2
100
AcDbBlockReference
  2
_Open30
 10
4102.147136272917
 20
4049.319627848173
 30
0.0
 41
20.0
 42
20.0
 43
20.0
 50
31.81999414368958
  0
MTEXT
  5
58A
330
582
100
AcDbEntity
  8
AM_5
 62
     0
100
AcDbMText
 10
4035.36559964926
 20
4034.360711927098
 30
0.0
 40
35.0
 41
0.0
 71
     5
 72
     1
  1
\A1;10
  7
スタイル１
 11
0.8497087528307659
 21
0.527252345051954
 31
0.0
 73
     1
 44
1.0
  0
POINT
  5
58B
330
582
100
AcDbEntity
  8
DEFPOINTS
 62
     0
100
AcDbPoint
 10
4050.144709653415
 20
4133.125641195873
 30
0.0
  0
POINT
  5
58C
330
582
100
AcDbEntity
  8
DEFPOINTS
 62
     0
100
AcDbPoint
 10
4092.693644610247
 20
4159.527659135213
 30
0.0
  0
POINT
  5
58D
330
582
100
AcDbEntity
  8
DEFPOINTS
 62
     0
100
AcDbPoint
 10
4144.696071229749
 20
4075.721645787512
 30
0.0
  0
ENDBLK
  5
58F
330
582
100
AcDbEntity
  8
0
100
AcDbBlockEnd
  0
BLOCK
  5
59B
330
591
100
AcDbEntity
  8
0
100
AcDbBlockBegin
  2
*D24
 70
     1
 10
0.0
 20
0.0
 30
0.0
  3
*D24
  1

  0
LINE
  5
592
330
591
100
AcDbEntity
  8
AM_5
 62
     2
370
    -2
100
AcDbLine
 10
4097.966168060767
 20
4151.030571606908
 30
0.0
 11
4149.906598624625
 21
4067.324469794239
 31
0.0
  0
LINE
  5
593
330
591
100
AcDbEntity
  8
AM_5
 62
     2
370
    -2
100
AcDbLine
 10
4120.762677473602
 20
4161.566092484141
 30
0.0
 11
4171.085820130104
 21
4080.466377733803
 31
0.0
  0
LINE
  5
594
330
591
100
AcDbEntity
  8
AM_5
 62
     2
370
    -2
100
AcDbLine
 10
4144.634075174104
 20
4075.821557322545
 30
0.0
 11
4127.639900117491
 21
4065.276510421504
 31
0.0
  0
LINE
  5
595
330
591
100
AcDbEntity
  8
AM_5
 62
     2
370
    -2
100
AcDbLine
 10
4165.813296679583
 20
4088.96346526211
 30
0.0
 11
4182.807471736196
 21
4099.508512163152
 31
0.0
  0
LINE
  5
596
330
591
100
AcDbEntity
  8
AM_5
 62
     2
370
    -2
100
AcDbLine
 10
4144.634075174104
 20
4075.821557322545
 30
0.0
 11
4165.813296679583
 21
4088.96346526211
 31
0.0
  0
MTEXT
  5
597
330
591
100
AcDbEntity
  8
AM_5
 62
     0
100
AcDbMText
 10
4143.36050816317
 20
4101.510958231018
 30
0.0
 40
35.0
 41
0.0
 71
     5
 72
     1
  1
\A1;5
  7
スタイル１
 11
0.8497087528306526
 21
0.5272523450521362
 31
0.0
 73
     1
 44
1.0
  0
POINT
  5
598
330
591
100
AcDbEntity
  8
DEFPOINTS
 62
     0
100
AcDbPoint
 10
4092.693644610246
 20
4159.527659135215
 30
0.0
  0
POINT
  5
599
330
591
100
AcDbEntity
  8
DEFPOINTS
 62
     0
100
AcDbPoint
 10
4115.49015402308
 20
4170.063180012448
 30
0.0
  0
POINT
  5
59A
330
591
100
AcDbEntity
  8
DEFPOINTS
 62
     0
100
AcDbPoint
 10
4165.813296679583
 20
4088.96346526211
 30
0.0
  0
ENDBLK
  5
59C
330
591
100
AcDbEntity
  8
0
100
AcDbBlockEnd
  0
BLOCK
  5
57F
330
573
100
AcDbEntity
  8
0
100
AcDbBlockBegin
  2
*D25
 70
     1
 10
0.0
 20
0.0
 30
0.0
  3
*D25
  1

  0
LINE
  5
574
330
573
100
AcDbEntity
  8
AM_5
 62
     2
370
    -2
100
AcDbLine
 10
4120.762677473602
 20
4161.566092484141
 30
0.0
 11
4171.085820130104
 21
4080.466377733802
 31
0.0
  0
LINE
  5
575
330
573
100
AcDbEntity
  8
AM_5
 62
     2
370
    -2
100
AcDbLine
 10
4125.08554543768
 20
4164.082574897242
 30
0.0
 11
4175.334363894256
 21
4083.102639459061
 31
0.0
  0
LINE
  5
576
330
573
100
AcDbEntity
  8
AM_5
 62
     2
370
    -2
100
AcDbLine
 10
4165.813296679583
 20
4088.96346526211
 30
0.0
 11
4148.819121622971
 21
4078.418418361066
 31
0.0
  0
LINE
  5
577
330
573
100
AcDbEntity
  8
AM_5
 62
     2
370
    -2
100
AcDbLine
 10
4170.061840443735
 20
4091.599726987368
 30
0.0
 11
4187.056015500348
 21
4102.144773888411
 31
0.0
  0
MTEXT
  5
578
330
573
100
AcDbEntity
  8
AM_5
 62
     0
100
AcDbMText
 10
4192.044135236453
 20
4061.230725041765
 30
0.0
 40
35.0
 41
0.0
 71
     5
 72
     1
  1
\A1;1
  7
スタイル１
 11
0.8497087528306526
 21
0.5272523450521362
 31
0.0
 73
     1
 44
1.0
  0
LINE
  5
579
330
573
100
AcDbEntity
  8
AM_5
 62
     2
370
    -2
100
AcDbLine
 10
4165.813296679583
 20
4088.96346526211
 30
0.0
 11
4170.061840443735
 21
4091.599726987368
 31
0.0
  0
INSERT
  5
57A
330
573
100
AcDbEntity
  8
AM_5
 62
     2
370
    -2
100
AcDbBlockReference
  2
_DotSmall
 10
4165.813296679583
 20
4088.96346526211
 30
0.0
 41
20.0
 42
20.0
 43
20.0
 50
31.8199941437019
  0
INSERT
  5
57B
330
573
100
AcDbEntity
  8
AM_5
 62
     2
370
    -2
100
AcDbBlockReference
  2
_DotSmall
 10
4170.061840443735
 20
4091.599726987368
 30
0.0
 41
20.0
 42
20.0
 43
20.0
 50
211.8199941437019
  0
POINT
  5
57C
330
573
100
AcDbEntity
  8
DEFPOINTS
 62
     0
100
AcDbPoint
 10
4115.49015402308
 20
4170.063180012448
 30
0.0
  0
POINT
  5
57D
330
573
100
AcDbEntity
  8
DEFPOINTS
 62
     0
100
AcDbPoint
 10
4119.813021987158
 20
4172.579662425549
 30
0.0
  0
POINT
  5
57E
330
573
100
AcDbEntity
  8
DEFPOINTS
 62
     0
100
AcDbPoint
 10
4170.061840443735
 20
4091.599726987368
 30
0.0
  0
ENDBLK
  5
580
330
573
100
AcDbEntity
  8
0
100
AcDbBlockEnd
  0
BLOCK
  5
55A
330
54F
100
AcDbEntity
  8
0
100
AcDbBlockBegin
  2
*D26
 70
     1
 10
0.0
 20
0.0
 30
0.0
  3
*D26
  1

  0
LINE
  5
550
330
54F
100
AcDbEntity
  8
AM_5
 62
     2
370
    -2
100
AcDbLine
 10
4125.08554543768
 20
4164.082574897242
 30
0.0
 11
4175.334363894256
 21
4083.102639459061
 31
0.0
  0
LINE
  5
551
330
54F
100
AcDbEntity
  8
AM_5
 62
     2
370
    -2
100
AcDbLine
 10
4131.57583806702
 20
4167.841059456599
 30
0.0
 11
4181.704229566967
 21
4087.055201560388
 31
0.0
  0
LINE
  5
552
330
54F
100
AcDbEntity
  8
AM_5
 62
     2
370
    -2
100
AcDbLine
 10
4170.061840443735
 20
4091.599726987367
 30
0.0
 11
4153.067665387122
 21
4081.054680086324
 31
0.0
  0
LINE
  5
553
330
54F
100
AcDbEntity
  8
AM_5
 62
     2
370
    -2
100
AcDbLine
 10
4193.425881173058
 20
4106.097335989737
 30
0.0
 11
4270.848582255851
 21
4154.138856769868
 31
0.0
  0
LINE
  5
554
330
54F
100
AcDbEntity
  8
AM_5
 62
     2
370
    -2
100
AcDbLine
 10
4170.061840443735
 20
4091.599726987367
 30
0.0
 11
4176.431706116445
 21
4095.552289088693
 31
0.0
  0
INSERT
  5
555
330
54F
100
AcDbEntity
  8
AM_5
 62
     2
370
    -2
100
AcDbBlockReference
  2
_Open30
 10
4176.431706116445
 20
4095.552289088693
 30
0.0
 41
20.0
 42
20.0
 43
20.0
 50
211.8199941437019
  0
MTEXT
  5
556
330
54F
100
AcDbEntity
  8
AM_5
 62
     0
100
AcDbMText
 10
4228.771141479088
 20
4154.509066769014
 30
0.0
 40
35.0
 41
0.0
 71
     5
 72
     1
  1
\A1;1.5
  7
スタイル１
 11
0.8497087528306526
 21
0.5272523450521362
 31
0.0
 73
     1
 44
1.0
  0
POINT
  5
557
330
54F
100
AcDbEntity
  8
DEFPOINTS
 62
     0
100
AcDbPoint
 10
4119.813021987158
 20
4172.579662425549
 30
0.0
  0
POINT
  5
558
330
54F
100
AcDbEntity
  8
DEFPOINTS
 62
     0
100
AcDbPoint
 10
4126.3033146165
 20
4176.338146984906
 30
0.0
  0
POINT
  5
559
330
54F
100
AcDbEntity
  8
DEFPOINTS
 62
     0
100
AcDbPoint
 10
4176.431706116445
 20
4095.552289088693
 30
0.0
  0
ENDBLK
  5
55B
330
54F
100
AcDbEntity
  8
0
100
AcDbBlockEnd
  0
BLOCK
  5
5FB
330
5EF
100
AcDbEntity
  8
0
100
AcDbBlockBegin
  2
*D27
 70
     1
 10
0.0
 20
0.0
 30
0.0
  3
*D27
  1

  0
LINE
  5
5F0
330
5EF
100
AcDbEntity
  8
AM_5
 62
     2
370
    -2
100
AcDbLine
 10
4911.166610792463
 20
4580.815708970191
 30
0.0
 11
5085.060921099053
 21
4580.815708970191
 31
0.0
  0
LINE
  5
5F1
330
5EF
100
AcDbEntity
  8
AM_5
 62
     2
370
    -2
100
AcDbLine
 10
4911.166610792463
 20
4575.815708970188
 30
0.0
 11
5085.060921099053
 21
4575.815708970188
 31
0.0
  0
LINE
  5
5F2
330
5EF
100
AcDbEntity
  8
AM_5
 62
     2
370
    -2
100
AcDbLine
 10
5075.060921099053
 20
4600.81570897019
 30
0.0
 11
5075.060921099053
 21
4620.81570897019
 31
0.0
  0
LINE
  5
5F3
330
5EF
100
AcDbEntity
  8
AM_5
 62
     2
370
    -2
100
AcDbLine
 10
5075.060921099053
 20
4555.815708970188
 30
0.0
 11
5075.060921099053
 21
4516.399465315365
 31
0.0
  0
LINE
  5
5F4
330
5EF
100
AcDbEntity
  8
AM_5
 62
     2
370
    -2
100
AcDbLine
 10
5075.060921099053
 20
4580.815708970191
 30
0.0
 11
5075.060921099053
 21
4575.815708970188
 31
0.0
  0
INSERT
  5
5F5
330
5EF
100
AcDbEntity
  8
AM_5
 62
     2
370
    -2
100
AcDbBlockReference
  2
_Open30
 10
5075.060921099053
 20
4580.815708970191
 30
0.0
 41
20.0
 42
20.0
 43
20.0
 50
270.0
  0
INSERT
  5
5F6
330
5EF
100
AcDbEntity
  8
AM_5
 62
     2
370
    -2
100
AcDbBlockReference
  2
_Open30
 10
5075.060921099053
 20
4575.815708970188
 30
0.0
 41
20.0
 42
20.0
 43
20.0
 50
90.0
  0
MTEXT
  5
5F7
330
5EF
100
AcDbEntity
  8
AM_5
 62
     0
100
AcDbMText
 10
5052.560921099052
 20
4526.107587142777
 30
0.0
 40
35.0
 41
0.0
 71
     5
 72
     1
  1
\A1;1
  7
スタイル１
 11
0.0000000000000001
 21
1.0
 31
0.0
 73
     1
 44
1.0
  0
POINT
  5
5F8
330
5EF
100
AcDbEntity
  8
DEFPOINTS
 62
     0
100
AcDbPoint
 10
4901.166610792463
 20
4580.815708970191
 30
0.0
  0
POINT
  5
5F9
330
5EF
100
AcDbEntity
  8
DEFPOINTS
 62
     0
100
AcDbPoint
 10
4901.166610792463
 20
4575.815708970188
 30
0.0
  0
POINT
  5
5FA
330
5EF
100
AcDbEntity
  8
DEFPOINTS
 62
     0
100
AcDbPoint
 10
5075.060921099053
 20
4575.815708970188
 30
0.0
  0
ENDBLK
  5
5FC
330
5EF
100
AcDbEntity
  8
0
100
AcDbBlockEnd
  0
BLOCK
  5
5EC
330
5E2
100
AcDbEntity
  8
0
100
AcDbBlockBegin
  2
*D28
 70
     1
 10
0.0
 20
0.0
 30
0.0
  3
*D28
  1

  0
LINE
  5
5E3
330
5E2
100
AcDbEntity
  8
AM_5
 62
     2
370
    -2
100
AcDbLine
 10
4901.166610792463
 20
4590.815708970191
 30
0.0
 11
4901.166610792463
 21
4719.318073572693
 31
0.0
  0
LINE
  5
5E4
330
5E2
100
AcDbEntity
  8
AM_5
 62
     2
370
    -2
100
AcDbLine
 10
5501.166610792463
 20
4706.82168109739
 30
0.0
 11
5501.166610792463
 21
4719.318073572693
 31
0.0
  0
LINE
  5
5E5
330
5E2
100
AcDbEntity
  8
AM_5
 62
     2
370
    -2
100
AcDbLine
 10
4921.166610792463
 20
4709.318073572693
 30
0.0
 11
5481.166610792463
 21
4709.318073572693
 31
0.0
  0
INSERT
  5
5E6
330
5E2
100
AcDbEntity
  8
AM_5
 62
     2
370
    -2
100
AcDbBlockReference
  2
_Open30
 10
4901.166610792463
 20
4709.318073572693
 30
0.0
 41
20.0
 42
20.0
 43
20.0
 50
180.0
  0
INSERT
  5
5E7
330
5E2
100
AcDbEntity
  8
AM_5
 62
     2
370
    -2
100
AcDbBlockReference
  2
_Open30
 10
5501.166610792463
 20
4709.318073572693
 30
0.0
 41
20.0
 42
20.0
 43
20.0
  0
MTEXT
  5
5E8
330
5E2
100
AcDbEntity
  8
AM_5
 62
     0
100
AcDbMText
 10
5201.166610792463
 20
4731.818073572692
 30
0.0
 40
35.0
 41
0.0
 71
     5
 72
     1
  1
\A1;120
  7
スタイル１
 73
     1
 44
1.0
  0
POINT
  5
5E9
330
5E2
100
AcDbEntity
  8
DEFPOINTS
 62
     0
100
AcDbPoint
 10
4901.166610792463
 20
4580.815708970191
 30
0.0
  0
POINT
  5
5EA
330
5E2
100
AcDbEntity
  8
DEFPOINTS
 62
     0
100
AcDbPoint
 10
5501.166610792463
 20
4696.821681097389
 30
0.0
  0
POINT
  5
5EB
330
5E2
100
AcDbEntity
  8
DEFPOINTS
 62
     0
100
AcDbPoint
 10
5501.166610792463
 20
4709.318073572693
 30
0.0
  0
ENDBLK
  5
5ED
330
5E2
100
AcDbEntity
  8
0
100
AcDbBlockEnd
  0
BLOCK
  5
547
330
53A
100
AcDbEntity
  8
0
100
AcDbBlockBegin
  2
*D29
 70
     1
 10
0.0
 20
0.0
 30
0.0
  3
*D29
  1

  0
LINE
  5
53B
330
53A
100
AcDbEntity
  8
AM_5
 62
     2
370
    -2
100
AcDbLine
 10
4831.059585961931
 20
4454.386779996208
 30
0.0
 11
4777.231269198643
 21
4361.153400476278
 31
0.0
  0
ARC
  5
53C
330
53A
100
AcDbEntity
  8
AM_5
 62
     2
370
    -2
100
AcDbCircle
 10
4901.166610792463
 20
4575.815708970188
 30
0.0
 40
237.8706831876464
100
AcDbArc
 50
230.3623819531771
 51
235.181190976589
  0
ARC
  5
53D
330
53A
100
AcDbEntity
  8
AM_5
 62
     2
370
    -2
100
AcDbCircle
 10
4901.166610792463
 20
4575.815708970188
 30
0.0
 40
237.8706831876464
100
AcDbArc
 50
274.8188090234118
 51
279.6376180468237
  0
ARC
  5
53E
330
53A
100
AcDbEntity
  8
AM_5
 62
     2
370
    -2
100
AcDbCircle
 10
4901.166610792463
 20
4575.815708970188
 30
0.0
 40
237.8706831876464
100
AcDbArc
 50
240.0000000000008
 51
270.0
  0
INSERT
  5
53F
330
53A
100
AcDbEntity
  8
AM_5
 62
     2
370
    -2
100
AcDbBlockReference
  2
_Open30
 10
4782.231269198642
 20
4369.813654514124
 30
0.0
 41
20.0
 42
20.0
 43
20.0
 50
327.5905954882949
  0
INSERT
  5
540
330
53A
100
AcDbEntity
  8
AM_5
 62
     2
370
    -2
100
AcDbBlockReference
  2
_Open30
 10
4901.166610792463
 20
4337.945025782541
 30
0.0
 41
20.0
 42
20.0
 43
20.0
 50
182.4094045117059
  0
MTEXT
  5
541
330
53A
100
AcDbEntity
  8
AM_5
 62
     0
100
AcDbMText
 10
4869.130762095274
 20
4362.840979072568
 30
0.0
 40
35.0
 41
0.0
 71
     5
 72
     1
  1
\A1;30°
  7
スタイル１
 11
0.9888752115442819
 21
-0.1487474907124537
 31
0.0
 73
     1
 44
1.0
  0
POINT
  5
542
330
53A
100
AcDbEntity
  8
DEFPOINTS
 62
     0
100
AcDbPoint
 10
4819.810045635652
 20
4352.290383277454
 30
0.0
  0
POINT
  5
543
330
53A
100
AcDbEntity
  8
DEFPOINTS
 62
     0
100
AcDbPoint
 10
4901.166610792463
 20
4575.815708970188
 30
0.0
  0
POINT
  5
544
330
53A
100
AcDbEntity
  8
DEFPOINTS
 62
     0
100
AcDbPoint
 10
4901.166610792463
 20
4580.815708970187
 30
0.0
  0
POINT
  5
545
330
53A
100
AcDbEntity
  8
DEFPOINTS
 62
     0
100
AcDbPoint
 10
4901.166610792464
 20
4085.279506754967
 30
0.0
  0
POINT
  5
546
330
53A
100
AcDbEntity
  8
DEFPOINTS
 62
     0
100
AcDbPoint
 10
4836.05958596193
 20
4463.047034034053
 30
0.0
  0
ENDBLK
  5
548
330
53A
100
AcDbEntity
  8
0
100
AcDbBlockEnd
  0
BLOCK
  5
492
330
488
100
AcDbEntity
  8
0
100
AcDbBlockBegin
  2
*D30
 70
     1
 10
0.0
 20
0.0
 30
0.0
  3
*D30
  1

  0
LINE
  5
489
330
488
100
AcDbEntity
  8
AM_5
 62
     2
370
    -2
100
AcDbLine
 10
4911.166610792466
 20
5507.596057884214
 30
0.0
 11
5141.629656072169
 21
5507.596057884214
 31
0.0
  0
LINE
  5
48A
330
488
100
AcDbEntity
  8
AM_5
 62
     2
370
    -2
100
AcDbLine
 10
4911.166610792466
 20
4820.6379995479
 30
0.0
 11
5141.629656072169
 21
4820.6379995479
 31
0.0
  0
LINE
  5
48B
330
488
100
AcDbEntity
  8
AM_5
 62
     2
370
    -2
100
AcDbLine
 10
5131.62965607217
 20
5487.596057884213
 30
0.0
 11
5131.62965607217
 21
4840.6379995479
 31
0.0
  0
INSERT
  5
48C
330
488
100
AcDbEntity
  8
AM_5
 62
     2
370
    -2
100
AcDbBlockReference
  2
_Open30
 10
5131.62965607217
 20
5507.596057884214
 30
0.0
 41
20.0
 42
20.0
 43
20.0
 50
90.0
  0
INSERT
  5
48D
330
488
100
AcDbEntity
  8
AM_5
 62
     2
370
    -2
100
AcDbBlockReference
  2
_Open30
 10
5131.62965607217
 20
4820.6379995479
 30
0.0
 41
20.0
 42
20.0
 43
20.0
 50
270.0
  0
MTEXT
  5
48E
330
488
100
AcDbEntity
  8
AM_5
 62
     0
100
AcDbMText
 10
5109.129656072169
 20
5164.117028716058
 30
0.0
 40
35.0
 41
0.0
 71
     5
 72
     1
  1
\A1;1260
  7
スタイル１
 11
0.0000000000000001
 21
1.0
 31
0.0
 73
     1
 44
1.0
  0
POINT
  5
48F
330
488
100
AcDbEntity
  8
DEFPOINTS
 62
     0
100
AcDbPoint
 10
4901.166610792467
 20
5507.596057884214
 30
0.0
  0
POINT
  5
490
330
488
100
AcDbEntity
  8
DEFPOINTS
 62
     0
100
AcDbPoint
 10
4901.166610792467
 20
4820.6379995479
 30
0.0
  0
POINT
  5
491
330
488
100
AcDbEntity
  8
DEFPOINTS
 62
     0
100
AcDbPoint
 10
5131.62965607217
 20
4820.6379995479
 30
0.0
  0
ENDBLK
  5
493
330
488
100
AcDbEntity
  8
0
100
AcDbBlockEnd
  0
BLOCK
  5
634
330
62A
100
AcDbEntity
  8
0
100
AcDbBlockBegin
  2
*D31
 70
     1
 10
0.0
 20
0.0
 30
0.0
  3
*D31
  1

  0
LINE
  5
62B
330
62A
100
AcDbEntity
  8
AM_5
 62
     2
370
    -2
100
AcDbLine
 10
5843.309542315541
 20
4769.109562760429
 30
0.0
 11
5843.309542315541
 21
4947.56293477054
 31
0.0
  0
LINE
  5
62C
330
62A
100
AcDbEntity
  8
AM_5
 62
     2
370
    -2
100
AcDbLine
 10
7113.309542315541
 20
4769.109562760429
 30
0.0
 11
7113.309542315541
 21
4947.56293477054
 31
0.0
  0
LINE
  5
62D
330
62A
100
AcDbEntity
  8
AM_5
 62
     2
370
    -2
100
AcDbLine
 10
5863.309542315541
 20
4937.562934770539
 30
0.0
 11
7093.309542315541
 21
4937.562934770539
 31
0.0
  0
INSERT
  5
62E
330
62A
100
AcDbEntity
  8
AM_5
 62
     2
370
    -2
100
AcDbBlockReference
  2
_Open30
 10
5843.309542315541
 20
4937.562934770539
 30
0.0
 41
20.0
 42
20.0
 43
20.0
 50
180.0
  0
INSERT
  5
62F
330
62A
100
AcDbEntity
  8
AM_5
 62
     2
370
    -2
100
AcDbBlockReference
  2
_Open30
 10
7113.309542315541
 20
4937.562934770539
 30
0.0
 41
20.0
 42
20.0
 43
20.0
  0
MTEXT
  5
630
330
62A
100
AcDbEntity
  8
AM_5
 62
     0
100
AcDbMText
 10
6478.309542315542
 20
4960.06293477054
 30
0.0
 40
35.0
 41
0.0
 71
     5
 72
     1
  1
\A1;1270
  7
スタイル１
 73
     1
 44
1.0
  0
POINT
  5
631
330
62A
100
AcDbEntity
  8
DEFPOINTS
 62
     0
100
AcDbPoint
 10
5843.309542315541
 20
4759.10956276043
 30
0.0
  0
POINT
  5
632
330
62A
100
AcDbEntity
  8
DEFPOINTS
 62
     0
100
AcDbPoint
 10
7113.309542315541
 20
4759.10956276043
 30
0.0
  0
POINT
  5
633
330
62A
100
AcDbEntity
  8
DEFPOINTS
 62
     0
100
AcDbPoint
 10
7113.309542315541
 20
4937.562934770539
 30
0.0
  0
ENDBLK
  5
635
330
62A
100
AcDbEntity
  8
0
100
AcDbBlockEnd
  0
BLOCK
  5
643
330
63D
100
AcDbEntity
  8
0
100
AcDbBlockBegin
  2
*D32
 70
     1
 10
0.0
 20
0.0
 30
0.0
  3
*D32
  1

  0
LINE
  5
63E
330
63D
100
AcDbEntity
  8
AM_5
 62
     2
370
    -2
100
AcDbLine
 10
7869.179473726996
 20
4283.60291377374
 30
0.0
 11
7426.079137616198
 21
4574.398532960996
 31
0.0
  0
INSERT
  5
63F
330
63D
100
AcDbEntity
  8
AM_5
 62
     2
370
    -2
100
AcDbBlockReference
  2
_Open30
 10
7409.35837021579
 20
4585.371952552967
 30
0.0
 41
20.0
 42
20.0
 43
20.0
 50
146.7241156880542
  0
MTEXT
  5
640
330
63D
100
AcDbEntity
  8
AM_5
 62
     0
100
AcDbMText
 10
7652.180506106848
 20
4452.92652523978
 30
0.0
 40
35.0
 41
0.0
 71
     5
 72
     1
  1
\A1;R550
  7
スタイル１
 11
0.8360383700203708
 21
-0.5486709795985945
 31
0.0
 73
     1
 44
1.0
  0
POINT
  5
641
330
63D
100
AcDbEntity
  8
DEFPOINTS
 62
     0
100
AcDbPoint
 10
7409.35837021579
 20
4585.371952552967
 30
0.0
  0
POINT
  5
642
330
63D
100
AcDbEntity
  8
DEFPOINTS
 62
     0
100
AcDbPoint
 10
7869.179473726996
 20
4283.60291377374
 30
0.0
  0
ENDBLK
  5
644
330
63D
100
AcDbEntity
  8
0
100
AcDbBlockEnd
  0
BLOCK
  5
619
330
60D
100
AcDbEntity
  8
0
100
AcDbBlockBegin
  2
*D33
 70
     1
 10
0.0
 20
0.0
 30
0.0
  3
*D33
  1

  0
LINE
  5
60E
330
60D
100
AcDbEntity
  8
AM_5
 62
     2
370
    -2
100
AcDbLine
 10
7414.427060826766
 20
4594.006671742965
 30
0.0
 11
7414.449458331358
 21
4594.040799979978
 31
0.0
  0
LINE
  5
60F
330
60D
100
AcDbEntity
  8
AM_5
 62
     2
370
    -2
100
AcDbLine
 10
7414.845080011774
 20
4593.732336253166
 30
0.0
 11
7414.86747751637
 21
4593.76646449018
 31
0.0
  0
LINE
  5
610
330
60D
100
AcDbEntity
  8
AM_5
 62
     2
370
    -2
100
AcDbLine
 10
7426.101535120785
 20
4574.432661198001
 30
0.0
 11
7442.822302521192
 21
4563.459241606027
 31
0.0
  0
LINE
  5
611
330
60D
100
AcDbEntity
  8
AM_5
 62
     2
370
    -2
100
AcDbLine
 10
7392.241981134967
 20
4596.653835871753
 30
0.0
 11
7294.824413704436
 21
4660.586538088454
 31
0.0
  0
LINE
  5
612
330
60D
100
AcDbEntity
  8
AM_5
 62
     2
370
    -2
100
AcDbLine
 10
7409.380767720382
 20
4585.406080789978
 30
0.0
 11
7408.962748535372
 21
4585.680416279777
 31
0.0
  0
INSERT
  5
613
330
60D
100
AcDbEntity
  8
AM_5
 62
     2
370
    -2
100
AcDbBlockReference
  2
_Open30
 10
7409.380767720382
 20
4585.406080789978
 30
0.0
 41
20.0
 42
20.0
 43
20.0
 50
146.7241156880417
  0
INSERT
  5
614
330
60D
100
AcDbEntity
  8
AM_5
 62
     2
370
    -2
100
AcDbBlockReference
  2
_Open30
 10
7408.962748535372
 20
4585.680416279777
 30
0.0
 41
20.0
 42
20.0
 43
20.0
 50
326.7241156880416
  0
MTEXT
  5
615
330
60D
100
AcDbEntity
  8
AM_5
 62
     0
100
AcDbMText
 10
7347.517910760472
 20
4652.917760101545
 30
0.0
 40
35.0
 41
0.0
 71
     5
 72
     1
  1
\A1;t0.5
  7
スタイル１
 11
0.8360383700202506
 21
-0.5486709795987779
 31
0.0
 73
     1
 44
1.0
  0
POINT
  5
616
330
60D
100
AcDbEntity
  8
DEFPOINTS
 62
     0
100
AcDbPoint
 10
7408.940351030776
 20
4585.646288042763
 30
0.0
  0
POINT
  5
617
330
60D
100
AcDbEntity
  8
DEFPOINTS
 62
     0
100
AcDbPoint
 10
7409.358370215787
 20
4585.371952552963
 30
0.0
  0
POINT
  5
618
330
60D
100
AcDbEntity
  8
DEFPOINTS
 62
     0
100
AcDbPoint
 10
7409.380767720382
 20
4585.406080789978
 30
0.0
  0
ENDBLK
  5
61A
330
60D
100
AcDbEntity
  8
0
100
AcDbBlockEnd
  0
BLOCK
  5
2F4
330
2EA
100
AcDbEntity
  8
0
100
AcDbBlockBegin
  2
*D36
 70
     1
 10
0.0
 20
0.0
 30
0.0
  3
*D36
  1

  0
LINE
  5
2EB
330
2EA
100
AcDbEntity
  8
AM_5
 62
     2
370
    -2
100
AcDbLine
 10
4105.148382800218
 20
2991.26025923128
 30
0.0
 11
4331.28522826778
 21
2991.26025923128
 31
0.0
  0
LINE
  5
2EC
330
2EA
100
AcDbEntity
  8
AM_5
 62
     2
370
    -2
100
AcDbLine
 10
4105.148382800218
 20
1721.260259231279
 30
0.0
 11
4331.28522826778
 21
1721.260259231279
 31
0.0
  0
LINE
  5
2ED
330
2EA
100
AcDbEntity
  8
AM_5
 62
     2
370
    -2
100
AcDbLine
 10
4321.285228267781
 20
2971.26025923128
 30
0.0
 11
4321.285228267779
 21
1741.260259231279
 31
0.0
  0
INSERT
  5
2EE
330
2EA
100
AcDbEntity
  8
AM_5
 62
     2
370
    -2
100
AcDbBlockReference
  2
_Open30
 10
4321.285228267781
 20
2991.26025923128
 30
0.0
 41
20.0
 42
20.0
 43
20.0
 50
90.0
  0
INSERT
  5
2EF
330
2EA
100
AcDbEntity
  8
AM_5
 62
     2
370
    -2
100
AcDbBlockReference
  2
_Open30
 10
4321.285228267779
 20
1721.260259231279
 30
0.0
 41
20.0
 42
20.0
 43
20.0
 50
270.0
  0
MTEXT
  5
2F0
330
2EA
100
AcDbEntity
  8
AM_5
 62
     0
100
AcDbMText
 10
4298.78522826778
 20
2356.26025923128
 30
0.0
 40
35.0
 41
0.0
 71
     5
 72
     1
  1
\A1;1270
  7
スタイル１
 11
0.0000000000000001
 21
1.0
 31
0.0
 73
     1
 44
1.0
  0
POINT
  5
2F1
330
2EA
100
AcDbEntity
  8
DEFPOINTS
 62
     0
100
AcDbPoint
 10
4095.148382800219
 20
2991.26025923128
 30
0.0
  0
POINT
  5
2F2
330
2EA
100
AcDbEntity
  8
DEFPOINTS
 62
     0
100
AcDbPoint
 10
4095.148382800219
 20
1721.260259231279
 30
0.0
  0
POINT
  5
2F3
330
2EA
100
AcDbEntity
  8
DEFPOINTS
 62
     0
100
AcDbPoint
 10
4321.285228267779
 20
1721.260259231279
 30
0.0
  0
ENDBLK
  5
2F5
330
2EA
100
AcDbEntity
  8
0
100
AcDbBlockEnd
  0
BLOCK
  5
285
330
27B
100
AcDbEntity
  8
0
100
AcDbBlockBegin
  2
*D37
 70
     1
 10
0.0
 20
0.0
 30
0.0
  3
*D37
  1

  0
LINE
  5
27C
330
27B
100
AcDbEntity
  8
AM_5
 62
     2
370
    -2
100
AcDbLine
 10
3560.148382800619
 20
1924.660259231279
 30
0.0
 11
3560.148382800619
 21
1538.499488075143
 31
0.0
  0
LINE
  5
27D
330
27B
100
AcDbEntity
  8
AM_5
 62
     2
370
    -2
100
AcDbLine
 10
4095.148382800219
 20
1711.260259231279
 30
0.0
 11
4095.148382800219
 21
1538.499488075143
 31
0.0
  0
LINE
  5
27E
330
27B
100
AcDbEntity
  8
AM_5
 62
     2
370
    -2
100
AcDbLine
 10
3580.148382800618
 20
1548.499488075143
 30
0.0
 11
4075.148382800219
 21
1548.499488075143
 31
0.0
  0
INSERT
  5
27F
330
27B
100
AcDbEntity
  8
AM_5
 62
     2
370
    -2
100
AcDbBlockReference
  2
_Open30
 10
3560.148382800619
 20
1548.499488075143
 30
0.0
 41
20.0
 42
20.0
 43
20.0
 50
180.0
  0
INSERT
  5
280
330
27B
100
AcDbEntity
  8
AM_5
 62
     2
370
    -2
100
AcDbBlockReference
  2
_Open30
 10
4095.148382800219
 20
1548.499488075143
 30
0.0
 41
20.0
 42
20.0
 43
20.0
  0
MTEXT
  5
281
330
27B
100
AcDbEntity
  8
AM_5
 62
     0
100
AcDbMText
 10
3827.648382800418
 20
1570.999488075143
 30
0.0
 40
35.0
 41
0.0
 71
     5
 72
     1
  1
\A1;535
  7
スタイル１
 73
     1
 44
1.0
  0
POINT
  5
282
330
27B
100
AcDbEntity
  8
DEFPOINTS
 62
     0
100
AcDbPoint
 10
3560.148382800619
 20
1934.66025923128
 30
0.0
  0
POINT
  5
283
330
27B
100
AcDbEntity
  8
DEFPOINTS
 62
     0
100
AcDbPoint
 10
4095.148382800219
 20
1721.260259231279
 30
0.0
  0
POINT
  5
284
330
27B
100
AcDbEntity
  8
DEFPOINTS
 62
     0
100
AcDbPoint
 10
4095.148382800219
 20
1548.499488075143
 30
0.0
  0
ENDBLK
  5
286
330
27B
100
AcDbEntity
  8
0
100
AcDbBlockEnd
  0
BLOCK
  5
294
330
28A
100
AcDbEntity
  8
0
100
AcDbBlockBegin
  2
*D38
 70
     1
 10
0.0
 20
0.0
 30
0.0
  3
*D38
  1

  0
LINE
  5
28B
330
28A
100
AcDbEntity
  8
AM_5
 62
     2
370
    -2
100
AcDbLine
 10
3421.583289585122
 20
1849.260259231279
 30
0.0
 11
3421.583289585122
 21
1429.585742159881
 31
0.0
  0
LINE
  5
28C
330
28A
100
AcDbEntity
  8
AM_5
 62
     2
370
    -2
100
AcDbLine
 10
4095.148382800219
 20
1711.260259231279
 30
0.0
 11
4095.148382800219
 21
1429.585742159881
 31
0.0
  0
LINE
  5
28D
330
28A
100
AcDbEntity
  8
AM_5
 62
     2
370
    -2
100
AcDbLine
 10
3441.583289585121
 20
1439.585742159881
 30
0.0
 11
4075.148382800219
 21
1439.585742159881
 31
0.0
  0
INSERT
  5
28E
330
28A
100
AcDbEntity
  8
AM_5
 62
     2
370
    -2
100
AcDbBlockReference
  2
_Open30
 10
3421.583289585122
 20
1439.585742159881
 30
0.0
 41
20.0
 42
20.0
 43
20.0
 50
180.0
  0
INSERT
  5
28F
330
28A
100
AcDbEntity
  8
AM_5
 62
     2
370
    -2
100
AcDbBlockReference
  2
_Open30
 10
4095.148382800219
 20
1439.585742159881
 30
0.0
 41
20.0
 42
20.0
 43
20.0
  0
MTEXT
  5
290
330
28A
100
AcDbEntity
  8
AM_5
 62
     0
100
AcDbMText
 10
3758.365836192671
 20
1462.085742159881
 30
0.0
 40
35.0
 41
0.0
 71
     5
 72
     1
  1
\A1;673.57
  7
スタイル１
 73
     1
 44
1.0
  0
POINT
  5
291
330
28A
100
AcDbEntity
  8
DEFPOINTS
 62
     0
100
AcDbPoint
 10
3421.583289585122
 20
1859.260259231279
 30
0.0
  0
POINT
  5
292
330
28A
100
AcDbEntity
  8
DEFPOINTS
 62
     0
100
AcDbPoint
 10
4095.148382800219
 20
1721.26025923128
 30
0.0
  0
POINT
  5
293
330
28A
100
AcDbEntity
  8
DEFPOINTS
 62
     0
100
AcDbPoint
 10
4095.148382800219
 20
1439.585742159881
 30
0.0
  0
ENDBLK
  5
295
330
28A
100
AcDbEntity
  8
0
100
AcDbBlockEnd
  0
BLOCK
  5
26A
330
261
100
AcDbEntity
  8
0
100
AcDbBlockBegin
  2
*D39
 70
     1
 10
0.0
 20
0.0
 30
0.0
  3
*D39
  1

  0
LINE
  5
262
330
261
100
AcDbEntity
  8
AM_5
 62
     2
370
    -2
100
AcDbLine
 10
3691.748382800619
 20
2656.260259231279
 30
0.0
 11
3857.948957551516
 21
2656.260259231279
 31
0.0
  0
LINE
  5
263
330
261
100
AcDbEntity
  8
AM_5
 62
     2
370
    -2
100
AcDbLine
 10
3847.948957551516
 20
2636.26025923128
 30
0.0
 11
3847.948957551516
 21
2376.260259231279
 31
0.0
  0
INSERT
  5
264
330
261
100
AcDbEntity
  8
AM_5
 62
     2
370
    -2
100
AcDbBlockReference
  2
_Open30
 10
3847.948957551516
 20
2656.260259231279
 30
0.0
 41
20.0
 42
20.0
 43
20.0
 50
90.0
  0
INSERT
  5
265
330
261
100
AcDbEntity
  8
AM_5
 62
     2
370
    -2
100
AcDbBlockReference
  2
_Open30
 10
3847.948957551516
 20
2356.260259231279
 30
0.0
 41
20.0
 42
20.0
 43
20.0
 50
270.0
  0
MTEXT
  5
266
330
261
100
AcDbEntity
  8
AM_5
 62
     0
100
AcDbMText
 10
3825.448957551516
 20
2506.26025923128
 30
0.0
 40
35.0
 41
0.0
 71
     5
 72
     1
  1
\A1;300
  7
スタイル１
 11
0.0000000000000001
 21
1.0
 31
0.0
 73
     1
 44
1.0
  0
POINT
  5
267
330
261
100
AcDbEntity
  8
DEFPOINTS
 62
     0
100
AcDbPoint
 10
3681.748382800619
 20
2656.260259231279
 30
0.0
  0
POINT
  5
268
330
261
100
AcDbEntity
  8
DEFPOINTS
 62
     0
100
AcDbPoint
 10
3847.948957551516
 20
2356.260259231279
 30
0.0
  0
POINT
  5
269
330
261
100
AcDbEntity
  8
DEFPOINTS
 62
     0
100
AcDbPoint
 10
3847.948957551516
 20
2356.260259231279
 30
0.0
  0
ENDBLK
  5
26B
330
261
100
AcDbEntity
  8
0
100
AcDbBlockEnd
  0
BLOCK
  5
25E
330
255
100
AcDbEntity
  8
0
100
AcDbBlockBegin
  2
*D40
 70
     1
 10
0.0
 20
0.0
 30
0.0
  3
*D40
  1

  0
LINE
  5
256
330
255
100
AcDbEntity
  8
AM_5
 62
     2
370
    -2
100
AcDbLine
 10
3691.748382800619
 20
2056.260259231279
 30
0.0
 11
3857.948957551516
 21
2056.260259231279
 31
0.0
  0
LINE
  5
257
330
255
100
AcDbEntity
  8
AM_5
 62
     2
370
    -2
100
AcDbLine
 10
3847.948957551516
 20
2336.260259231279
 30
0.0
 11
3847.948957551516
 21
2076.260259231279
 31
0.0
  0
INSERT
  5
258
330
255
100
AcDbEntity
  8
AM_5
 62
     2
370
    -2
100
AcDbBlockReference
  2
_Open30
 10
3847.948957551516
 20
2356.260259231279
 30
0.0
 41
20.0
 42
20.0
 43
20.0
 50
90.0
  0
INSERT
  5
259
330
255
100
AcDbEntity
  8
AM_5
 62
     2
370
    -2
100
AcDbBlockReference
  2
_Open30
 10
3847.948957551516
 20
2056.260259231279
 30
0.0
 41
20.0
 42
20.0
 43
20.0
 50
270.0
  0
MTEXT
  5
25A
330
255
100
AcDbEntity
  8
AM_5
 62
     0
100
AcDbMText
 10
3825.448957551516
 20
2206.260259231279
 30
0.0
 40
35.0
 41
0.0
 71
     5
 72
     1
  1
\A1;300
  7
スタイル１
 11
0.0000000000000001
 21
1.0
 31
0.0
 73
     1
 44
1.0
  0
POINT
  5
25B
330
255
100
AcDbEntity
  8
DEFPOINTS
 62
     0
100
AcDbPoint
 10
3847.948957551516
 20
2356.260259231279
 30
0.0
  0
POINT
  5
25C
330
255
100
AcDbEntity
  8
DEFPOINTS
 62
     0
100
AcDbPoint
 10
3681.748382800619
 20
2056.260259231279
 30
0.0
  0
POINT
  5
25D
330
255
100
AcDbEntity
  8
DEFPOINTS
 62
     0
100
AcDbPoint
 10
3847.948957551516
 20
2056.260259231279
 30
0.0
  0
ENDBLK
  5
25F
330
255
100
AcDbEntity
  8
0
100
AcDbBlockEnd
  0
BLOCK
  5
2D1
330
2C7
100
AcDbEntity
  8
0
100
AcDbBlockBegin
  2
*D41
 70
     1
 10
0.0
 20
0.0
 30
0.0
  3
*D41
  1

  0
LINE
  5
2C8
330
2C7
100
AcDbEntity
  8
AM_5
 62
     2
370
    -2
100
AcDbLine
 10
3344.583289585122
 20
2786.260259231279
 30
0.0
 11
3238.616687196265
 21
2786.260259231279
 31
0.0
  0
LINE
  5
2C9
330
2C7
100
AcDbEntity
  8
AM_5
 62
     2
370
    -2
100
AcDbLine
 10
3262.453765886743
 20
2356.260259231279
 30
0.0
 11
3238.616687196265
 21
2356.260259231279
 31
0.0
  0
LINE
  5
2CA
330
2C7
100
AcDbEntity
  8
AM_5
 62
     2
370
    -2
100
AcDbLine
 10
3248.616687196265
 20
2766.260259231279
 30
0.0
 11
3248.616687196265
 21
2376.260259231279
 31
0.0
  0
INSERT
  5
2CB
330
2C7
100
AcDbEntity
  8
AM_5
 62
     2
370
    -2
100
AcDbBlockReference
  2
_Open30
 10
3248.616687196265
 20
2786.260259231279
 30
0.0
 41
20.0
 42
20.0
 43
20.0
 50
90.0
  0
INSERT
  5
2CC
330
2C7
100
AcDbEntity
  8
AM_5
 62
     2
370
    -2
100
AcDbBlockReference
  2
_Open30
 10
3248.616687196265
 20
2356.260259231279
 30
0.0
 41
20.0
 42
20.0
 43
20.0
 50
270.0
  0
MTEXT
  5
2CD
330
2C7
100
AcDbEntity
  8
AM_5
 62
     0
100
AcDbMText
 10
3226.116687196264
 20
2571.26025923128
 30
0.0
 40
35.0
 41
0.0
 71
     5
 72
     1
  1
\A1;430
  7
スタイル１
 11
0.0000000000000001
 21
1.0
 31
0.0
 73
     1
 44
1.0
  0
POINT
  5
2CE
330
2C7
100
AcDbEntity
  8
DEFPOINTS
 62
     0
100
AcDbPoint
 10
3354.583289585121
 20
2786.260259231279
 30
0.0
  0
POINT
  5
2CF
330
2C7
100
AcDbEntity
  8
DEFPOINTS
 62
     0
100
AcDbPoint
 10
3272.453765886743
 20
2356.260259231279
 30
0.0
  0
POINT
  5
2D0
330
2C7
100
AcDbEntity
  8
DEFPOINTS
 62
     0
100
AcDbPoint
 10
3248.616687196265
 20
2356.260259231279
 30
0.0
  0
ENDBLK
  5
2D2
330
2C7
100
AcDbEntity
  8
0
100
AcDbBlockEnd
  0
BLOCK
  5
2B1
330
2A7
100
AcDbEntity
  8
0
100
AcDbBlockBegin
  2
*D42
 70
     1
 10
0.0
 20
0.0
 30
0.0
  3
*D42
  1

  0
LINE
  5
2A8
330
2A7
100
AcDbEntity
  8
AM_5
 62
     2
370
    -2
100
AcDbLine
 10
3262.453765886743
 20
2356.260259231279
 30
0.0
 11
3238.616687196265
 21
2356.260259231279
 31
0.0
  0
LINE
  5
2A9
330
2A7
100
AcDbEntity
  8
AM_5
 62
     2
370
    -2
100
AcDbLine
 10
3344.583289585122
 20
1926.260259231279
 30
0.0
 11
3238.616687196265
 21
1926.260259231279
 31
0.0
  0
LINE
  5
2AA
330
2A7
100
AcDbEntity
  8
AM_5
 62
     2
370
    -2
100
AcDbLine
 10
3248.616687196265
 20
2336.260259231279
 30
0.0
 11
3248.616687196265
 21
1946.260259231279
 31
0.0
  0
INSERT
  5
2AB
330
2A7
100
AcDbEntity
  8
AM_5
 62
     2
370
    -2
100
AcDbBlockReference
  2
_Open30
 10
3248.616687196265
 20
2356.260259231279
 30
0.0
 41
20.0
 42
20.0
 43
20.0
 50
90.0
  0
INSERT
  5
2AC
330
2A7
100
AcDbEntity
  8
AM_5
 62
     2
370
    -2
100
AcDbBlockReference
  2
_Open30
 10
3248.616687196265
 20
1926.260259231279
 30
0.0
 41
20.0
 42
20.0
 43
20.0
 50
270.0
  0
MTEXT
  5
2AD
330
2A7
100
AcDbEntity
  8
AM_5
 62
     0
100
AcDbMText
 10
3226.116687196264
 20
2141.26025923128
 30
0.0
 40
35.0
 41
0.0
 71
     5
 72
     1
  1
\A1;430
  7
スタイル１
 11
0.0000000000000001
 21
1.0
 31
0.0
 73
     1
 44
1.0
  0
POINT
  5
2AE
330
2A7
100
AcDbEntity
  8
DEFPOINTS
 62
     0
100
AcDbPoint
 10
3272.453765886743
 20
2356.260259231279
 30
0.0
  0
POINT
  5
2AF
330
2A7
100
AcDbEntity
  8
DEFPOINTS
 62
     0
100
AcDbPoint
 10
3354.583289585121
 20
1926.260259231279
 30
0.0
  0
POINT
  5
2B0
330
2A7
100
AcDbEntity
  8
DEFPOINTS
 62
     0
100
AcDbPoint
 10
3248.616687196265
 20
1926.260259231279
 30
0.0
  0
ENDBLK
  5
2B2
330
2A7
100
AcDbEntity
  8
0
100
AcDbBlockEnd
  0
BLOCK
  5
1C6
330
1BC
100
AcDbEntity
  8
0
100
AcDbBlockBegin
  2
*D43
 70
     1
 10
0.0
 20
0.0
 30
0.0
  3
*D43
  1

  0
LINE
  5
1BD
330
1BC
100
AcDbEntity
  8
AM_5
 62
     2
370
    -2
100
AcDbLine
 10
5951.614595228513
 20
2834.50665725722
 30
0.0
 11
5951.614595228513
 21
3095.661629932608
 31
0.0
  0
LINE
  5
1BE
330
1BC
100
AcDbEntity
  8
AM_5
 62
     2
370
    -2
100
AcDbLine
 10
6101.614595228515
 20
2746.301159147232
 30
0.0
 11
6101.614595228515
 21
3095.661629932608
 31
0.0
  0
LINE
  5
1BF
330
1BC
100
AcDbEntity
  8
AM_5
 62
     2
370
    -2
100
AcDbLine
 10
5971.614595228513
 20
3085.661629932609
 30
0.0
 11
6081.614595228514
 21
3085.661629932609
 31
0.0
  0
INSERT
  5
1C0
330
1BC
100
AcDbEntity
  8
AM_5
 62
     2
370
    -2
100
AcDbBlockReference
  2
_Open30
 10
5951.614595228513
 20
3085.661629932609
 30
0.0
 41
20.0
 42
20.0
 43
20.0
 50
180.0
  0
INSERT
  5
1C1
330
1BC
100
AcDbEntity
  8
AM_5
 62
     2
370
    -2
100
AcDbBlockReference
  2
_Open30
 10
6101.614595228515
 20
3085.661629932609
 30
0.0
 41
20.0
 42
20.0
 43
20.0
  0
MTEXT
  5
1C2
330
1BC
100
AcDbEntity
  8
AM_5
 62
     0
100
AcDbMText
 10
6026.614595228513
 20
3108.161629932609
 30
0.0
 40
35.0
 41
0.0
 71
     5
 72
     1
  1
\A1;150
  7
スタイル１
 73
     1
 44
1.0
  0
POINT
  5
1C3
330
1BC
100
AcDbEntity
  8
DEFPOINTS
 62
     0
100
AcDbPoint
 10
5951.614595228513
 20
2824.50665725722
 30
0.0
  0
POINT
  5
1C4
330
1BC
100
AcDbEntity
  8
DEFPOINTS
 62
     0
100
AcDbPoint
 10
6101.614595228515
 20
2736.301159147232
 30
0.0
  0
POINT
  5
1C5
330
1BC
100
AcDbEntity
  8
DEFPOINTS
 62
     0
100
AcDbPoint
 10
6101.614595228515
 20
3085.661629932609
 30
0.0
  0
ENDBLK
  5
1C7
330
1BC
100
AcDbEntity
  8
0
100
AcDbBlockEnd
  0
BLOCK
  5
1F7
330
1ED
100
AcDbEntity
  8
0
100
AcDbBlockBegin
  2
*D44
 70
     1
 10
0.0
 20
0.0
 30
0.0
  3
*D44
  1

  0
LINE
  5
1EE
330
1ED
100
AcDbEntity
  8
AM_5
 62
     2
370
    -2
100
AcDbLine
 10
6101.614595228515
 20
2746.301159147232
 30
0.0
 11
6101.614595228515
 21
3095.661629932608
 31
0.0
  0
LINE
  5
1EF
330
1ED
100
AcDbEntity
  8
AM_5
 62
     2
370
    -2
100
AcDbLine
 10
7061.614595228514
 20
2746.301159147232
 30
0.0
 11
7061.614595228514
 21
3095.661629932608
 31
0.0
  0
LINE
  5
1F0
330
1ED
100
AcDbEntity
  8
AM_5
 62
     2
370
    -2
100
AcDbLine
 10
6121.614595228514
 20
3085.661629932609
 30
0.0
 11
7041.614595228513
 21
3085.661629932609
 31
0.0
  0
INSERT
  5
1F1
330
1ED
100
AcDbEntity
  8
AM_5
 62
     2
370
    -2
100
AcDbBlockReference
  2
_Open30
 10
6101.614595228515
 20
3085.661629932609
 30
0.0
 41
20.0
 42
20.0
 43
20.0
 50
180.0
  0
INSERT
  5
1F2
330
1ED
100
AcDbEntity
  8
AM_5
 62
     2
370
    -2
100
AcDbBlockReference
  2
_Open30
 10
7061.614595228514
 20
3085.661629932609
 30
0.0
 41
20.0
 42
20.0
 43
20.0
  0
MTEXT
  5
1F3
330
1ED
100
AcDbEntity
  8
AM_5
 62
     0
100
AcDbMText
 10
6581.614595228514
 20
3108.161629932609
 30
0.0
 40
35.0
 41
0.0
 71
     5
 72
     1
  1
\A1;960
  7
スタイル１
 73
     1
 44
1.0
  0
POINT
  5
1F4
330
1ED
100
AcDbEntity
  8
DEFPOINTS
 62
     0
100
AcDbPoint
 10
6101.614595228515
 20
2736.301159147232
 30
0.0
  0
POINT
  5
1F5
330
1ED
100
AcDbEntity
  8
DEFPOINTS
 62
     0
100
AcDbPoint
 10
7061.614595228514
 20
2736.301159147232
 30
0.0
  0
POINT
  5
1F6
330
1ED
100
AcDbEntity
  8
DEFPOINTS
 62
     0
100
AcDbPoint
 10
7061.614595228514
 20
3085.661629932609
 30
0.0
  0
ENDBLK
  5
1F8
330
1ED
100
AcDbEntity
  8
0
100
AcDbBlockEnd
  0
BLOCK
  5
1B9
330
1AF
100
AcDbEntity
  8
0
100
AcDbBlockBegin
  2
*D45
 70
     1
 10
0.0
 20
0.0
 30
0.0
  3
*D45
  1

  0
LINE
  5
1B0
330
1AF
100
AcDbEntity
  8
AM_5
 62
     2
370
    -2
100
AcDbLine
 10
7061.614595228514
 20
2746.301159147232
 30
0.0
 11
7061.614595228514
 21
3095.661629932608
 31
0.0
  0
LINE
  5
1B1
330
1AF
100
AcDbEntity
  8
AM_5
 62
     2
370
    -2
100
AcDbLine
 10
7211.614595228515
 20
2834.50665725722
 30
0.0
 11
7211.614595228515
 21
3095.661629932608
 31
0.0
  0
LINE
  5
1B2
330
1AF
100
AcDbEntity
  8
AM_5
 62
     2
370
    -2
100
AcDbLine
 10
7081.614595228514
 20
3085.661629932609
 30
0.0
 11
7191.614595228514
 21
3085.661629932609
 31
0.0
  0
INSERT
  5
1B3
330
1AF
100
AcDbEntity
  8
AM_5
 62
     2
370
    -2
100
AcDbBlockReference
  2
_Open30
 10
7061.614595228514
 20
3085.661629932609
 30
0.0
 41
20.0
 42
20.0
 43
20.0
 50
180.0
  0
INSERT
  5
1B4
330
1AF
100
AcDbEntity
  8
AM_5
 62
     2
370
    -2
100
AcDbBlockReference
  2
_Open30
 10
7211.614595228515
 20
3085.661629932609
 30
0.0
 41
20.0
 42
20.0
 43
20.0
  0
MTEXT
  5
1B5
330
1AF
100
AcDbEntity
  8
AM_5
 62
     0
100
AcDbMText
 10
7136.614595228514
 20
3108.161629932609
 30
0.0
 40
35.0
 41
0.0
 71
     5
 72
     1
  1
\A1;150
  7
スタイル１
 73
     1
 44
1.0
  0
POINT
  5
1B6
330
1AF
100
AcDbEntity
  8
DEFPOINTS
 62
     0
100
AcDbPoint
 10
7061.614595228514
 20
2736.301159147232
 30
0.0
  0
POINT
  5
1B7
330
1AF
100
AcDbEntity
  8
DEFPOINTS
 62
     0
100
AcDbPoint
 10
7211.614595228515
 20
2824.50665725722
 30
0.0
  0
POINT
  5
1B8
330
1AF
100
AcDbEntity
  8
DEFPOINTS
 62
     0
100
AcDbPoint
 10
7211.614595228515
 20
3085.661629932609
 30
0.0
  0
ENDBLK
  5
1BA
330
1AF
100
AcDbEntity
  8
0
100
AcDbBlockEnd
  0
BLOCK
  5
205
330
1FB
100
AcDbEntity
  8
0
100
AcDbBlockBegin
  2
*D46
 70
     1
 10
0.0
 20
0.0
 30
0.0
  3
*D46
  1

  0
LINE
  5
1FC
330
1FB
100
AcDbEntity
  8
AM_5
 62
     2
370
    -2
100
AcDbLine
 10
5951.614595228513
 20
2834.50665725722
 30
0.0
 11
5951.614595228513
 21
3183.161629932609
 31
0.0
  0
LINE
  5
1FD
330
1FB
100
AcDbEntity
  8
AM_5
 62
     2
370
    -2
100
AcDbLine
 10
7211.614595228515
 20
2834.50665725722
 30
0.0
 11
7211.614595228515
 21
3183.161629932609
 31
0.0
  0
LINE
  5
1FE
330
1FB
100
AcDbEntity
  8
AM_5
 62
     2
370
    -2
100
AcDbLine
 10
5971.614595228513
 20
3173.161629932609
 30
0.0
 11
7191.614595228514
 21
3173.161629932609
 31
0.0
  0
INSERT
  5
1FF
330
1FB
100
AcDbEntity
  8
AM_5
 62
     2
370
    -2
100
AcDbBlockReference
  2
_Open30
 10
5951.614595228513
 20
3173.161629932609
 30
0.0
 41
20.0
 42
20.0
 43
20.0
 50
180.0
  0
INSERT
  5
200
330
1FB
100
AcDbEntity
  8
AM_5
 62
     2
370
    -2
100
AcDbBlockReference
  2
_Open30
 10
7211.614595228515
 20
3173.161629932609
 30
0.0
 41
20.0
 42
20.0
 43
20.0
  0
MTEXT
  5
201
330
1FB
100
AcDbEntity
  8
AM_5
 62
     0
100
AcDbMText
 10
6581.614595228514
 20
3195.661629932609
 30
0.0
 40
35.0
 41
0.0
 71
     5
 72
     1
  1
\A1;1260
  7
スタイル１
 73
     1
 44
1.0
  0
POINT
  5
202
330
1FB
100
AcDbEntity
  8
DEFPOINTS
 62
     0
100
AcDbPoint
 10
5951.614595228513
 20
2824.50665725722
 30
0.0
  0
POINT
  5
203
330
1FB
100
AcDbEntity
  8
DEFPOINTS
 62
     0
100
AcDbPoint
 10
7211.614595228515
 20
2824.50665725722
 30
0.0
  0
POINT
  5
204
330
1FB
100
AcDbEntity
  8
DEFPOINTS
 62
     0
100
AcDbPoint
 10
7211.614595228515
 20
3173.161629932609
 30
0.0
  0
ENDBLK
  5
206
330
1FB
100
AcDbEntity
  8
0
100
AcDbBlockEnd
  0
BLOCK
  5
425
330
41B
100
AcDbEntity
  8
0
100
AcDbBlockBegin
  2
*D47
 70
     1
 10
0.0
 20
0.0
 30
0.0
  3
*D47
  1

  0
LINE
  5
41C
330
41B
100
AcDbEntity
  8
AM_5
 62
     2
370
    -2
100
AcDbLine
 10
7133.281261895182
 20
2675.301159147232
 30
0.0
 11
7479.581080980849
 21
2675.301159147231
 31
0.0
  0
LINE
  5
41D
330
41B
100
AcDbEntity
  8
AM_5
 62
     2
370
    -2
100
AcDbLine
 10
7133.281261895182
 20
2365.301159147232
 30
0.0
 11
7479.581080980849
 21
2365.301159147231
 31
0.0
  0
LINE
  5
41E
330
41B
100
AcDbEntity
  8
AM_5
 62
     2
370
    -2
100
AcDbLine
 10
7469.581080980848
 20
2655.301159147231
 30
0.0
 11
7469.581080980848
 21
2385.301159147231
 31
0.0
  0
INSERT
  5
41F
330
41B
100
AcDbEntity
  8
AM_5
 62
     2
370
    -2
100
AcDbBlockReference
  2
_Open30
 10
7469.581080980848
 20
2675.301159147231
 30
0.0
 41
20.0
 42
20.0
 43
20.0
 50
90.0
  0
INSERT
  5
420
330
41B
100
AcDbEntity
  8
AM_5
 62
     2
370
    -2
100
AcDbBlockReference
  2
_Open30
 10
7469.581080980848
 20
2365.301159147231
 30
0.0
 41
20.0
 42
20.0
 43
20.0
 50
270.0
  0
MTEXT
  5
421
330
41B
100
AcDbEntity
  8
AM_5
 62
     0
100
AcDbMText
 10
7447.081080980847
 20
2520.301159147233
 30
0.0
 40
35.0
 41
0.0
 71
     5
 72
     1
  1
\A1;310
  7
スタイル１
 11
0.0000000000000001
 21
1.0
 31
0.0
 73
     1
 44
1.0
  0
POINT
  5
422
330
41B
100
AcDbEntity
  8
DEFPOINTS
 62
     0
100
AcDbPoint
 10
7123.281261895181
 20
2675.301159147232
 30
0.0
  0
POINT
  5
423
330
41B
100
AcDbEntity
  8
DEFPOINTS
 62
     0
100
AcDbPoint
 10
7123.281261895181
 20
2365.301159147232
 30
0.0
  0
POINT
  5
424
330
41B
100
AcDbEntity
  8
DEFPOINTS
 62
     0
100
AcDbPoint
 10
7469.581080980848
 20
2365.301159147231
 30
0.0
  0
ENDBLK
  5
426
330
41B
100
AcDbEntity
  8
0
100
AcDbBlockEnd
  0
BLOCK
  5
418
330
40E
100
AcDbEntity
  8
0
100
AcDbBlockBegin
  2
*D48
 70
     1
 10
0.0
 20
0.0
 30
0.0
  3
*D48
  1

  0
LINE
  5
40F
330
40E
100
AcDbEntity
  8
AM_5
 62
     2
370
    -2
100
AcDbLine
 10
7133.281261895182
 20
2365.301159147232
 30
0.0
 11
7479.581080980849
 21
2365.301159147231
 31
0.0
  0
LINE
  5
410
330
40E
100
AcDbEntity
  8
AM_5
 62
     2
370
    -2
100
AcDbLine
 10
7221.614595228516
 20
2178.899716737085
 30
0.0
 11
7479.581080980849
 21
2178.899716737085
 31
0.0
  0
LINE
  5
411
330
40E
100
AcDbEntity
  8
AM_5
 62
     2
370
    -2
100
AcDbLine
 10
7469.581080980848
 20
2345.301159147231
 30
0.0
 11
7469.581080980848
 21
2198.899716737085
 31
0.0
  0
INSERT
  5
412
330
40E
100
AcDbEntity
  8
AM_5
 62
     2
370
    -2
100
AcDbBlockReference
  2
_Open30
 10
7469.581080980848
 20
2365.301159147231
 30
0.0
 41
20.0
 42
20.0
 43
20.0
 50
90.0
  0
INSERT
  5
413
330
40E
100
AcDbEntity
  8
AM_5
 62
     2
370
    -2
100
AcDbBlockReference
  2
_Open30
 10
7469.581080980848
 20
2178.899716737085
 30
0.0
 41
20.0
 42
20.0
 43
20.0
 50
270.0
  0
MTEXT
  5
414
330
40E
100
AcDbEntity
  8
AM_5
 62
     0
100
AcDbMText
 10
7447.081080980847
 20
2272.100437942159
 30
0.0
 40
35.0
 41
0.0
 71
     5
 72
     1
  1
\A1;186.4
  7
スタイル１
 11
0.0000000000000001
 21
1.0
 31
0.0
 73
     1
 44
1.0
  0
POINT
  5
415
330
40E
100
AcDbEntity
  8
DEFPOINTS
 62
     0
100
AcDbPoint
 10
7123.281261895181
 20
2365.301159147232
 30
0.0
  0
POINT
  5
416
330
40E
100
AcDbEntity
  8
DEFPOINTS
 62
     0
100
AcDbPoint
 10
7211.614595228517
 20
2178.899716737085
 30
0.0
  0
POINT
  5
417
330
40E
100
AcDbEntity
  8
DEFPOINTS
 62
     0
100
AcDbPoint
 10
7469.581080980848
 20
2178.899716737085
 30
0.0
  0
ENDBLK
  5
419
330
40E
100
AcDbEntity
  8
0
100
AcDbBlockEnd
  0
BLOCK
  5
1D7
330
1CC
100
AcDbEntity
  8
0
100
AcDbBlockBegin
  2
*D49
 70
     1
 10
0.0
 20
0.0
 30
0.0
  3
*D49
  1

  0
LINE
  5
1CD
330
1CC
100
AcDbEntity
  8
AM_5
 62
     2
370
    -2
100
AcDbLine
 10
5415.641319363134
 20
2834.011374870699
 30
0.0
 11
5415.641319363134
 21
3095.661629932608
 31
0.0
  0
LINE
  5
1CE
330
1CC
100
AcDbEntity
  8
AM_5
 62
     2
370
    -2
100
AcDbLine
 10
5420.641319363131
 20
2834.50665725722
 30
0.0
 11
5420.641319363131
 21
3095.661629932608
 31
0.0
  0
LINE
  5
1CF
330
1CC
100
AcDbEntity
  8
AM_5
 62
     2
370
    -2
100
AcDbLine
 10
5420.641319363131
 20
3085.661629932609
 30
0.0
 11
5460.641319363132
 21
3085.661629932609
 31
0.0
  0
LINE
  5
1D0
330
1CC
100
AcDbEntity
  8
AM_5
 62
     2
370
    -2
100
AcDbLine
 10
5395.641319363133
 20
3085.661629932609
 30
0.0
 11
5347.519491951965
 21
3085.661629932609
 31
0.0
  0
LINE
  5
1D1
330
1CC
100
AcDbEntity
  8
AM_5
 62
     2
370
    -2
100
AcDbLine
 10
5420.641319363131
 20
3085.661629932609
 30
0.0
 11
5415.641319363134
 21
3085.661629932609
 31
0.0
  0
INSERT
  5
1D2
330
1CC
100
AcDbEntity
  8
AM_5
 62
     2
370
    -2
100
AcDbBlockReference
  2
_Open30
 10
5415.641319363134
 20
3085.661629932609
 30
0.0
 41
20.0
 42
20.0
 43
20.0
  0
MTEXT
  5
1D3
330
1CC
100
AcDbEntity
  8
AM_5
 62
     0
100
AcDbMText
 10
5361.58040565755
 20
3108.161629932609
 30
0.0
 40
35.0
 41
0.0
 71
     5
 72
     1
  1
\A1;5
  7
スタイル１
 73
     1
 44
1.0
  0
POINT
  5
1D4
330
1CC
100
AcDbEntity
  8
DEFPOINTS
 62
     0
100
AcDbPoint
 10
5415.641319363134
 20
2824.011374870698
 30
0.0
  0
POINT
  5
1D5
330
1CC
100
AcDbEntity
  8
DEFPOINTS
 62
     0
100
AcDbPoint
 10
5420.641319363131
 20
2824.506657257219
 30
0.0
  0
POINT
  5
1D6
330
1CC
100
AcDbEntity
  8
DEFPOINTS
 62
     0
100
AcDbPoint
 10
5420.641319363131
 20
3085.661629932609
 30
0.0
  0
ENDBLK
  5
1D8
330
1CC
100
AcDbEntity
  8
0
100
AcDbBlockEnd
  0
BLOCK
  5
1EA
330
1DE
100
AcDbEntity
  8
0
100
AcDbBlockBegin
  2
*D50
 70
     1
 10
0.0
 20
0.0
 30
0.0
  3
*D50
  1

  0
LINE
  5
1DF
330
1DE
100
AcDbEntity
  8
AM_5
 62
     2
370
    -2
100
AcDbLine
 10
5420.641319363131
 20
2834.50665725722
 30
0.0
 11
5420.641319363131
 21
3095.661629932608
 31
0.0
  0
LINE
  5
1E0
330
1DE
100
AcDbEntity
  8
AM_5
 62
     2
370
    -2
100
AcDbLine
 10
5435.641319363133
 20
2834.50665725722
 30
0.0
 11
5435.641319363133
 21
3095.661629932608
 31
0.0
  0
LINE
  5
1E1
330
1DE
100
AcDbEntity
  8
AM_5
 62
     2
370
    -2
100
AcDbLine
 10
5420.641319363131
 20
3085.661629932609
 30
0.0
 11
5400.641319363131
 21
3085.661629932609
 31
0.0
  0
LINE
  5
1E2
330
1DE
100
AcDbEntity
  8
AM_5
 62
     2
370
    -2
100
AcDbLine
 10
5455.641319363134
 20
3085.661629932609
 30
0.0
 11
5524.0169538809
 21
3085.661629932609
 31
0.0
  0
LINE
  5
1E3
330
1DE
100
AcDbEntity
  8
AM_5
 62
     2
370
    -2
100
AcDbLine
 10
5420.641319363131
 20
3085.661629932609
 30
0.0
 11
5435.641319363133
 21
3085.661629932609
 31
0.0
  0
INSERT
  5
1E4
330
1DE
100
AcDbEntity
  8
AM_5
 62
     2
370
    -2
100
AcDbBlockReference
  2
_DotSmall
 10
5420.641319363131
 20
3085.661629932609
 30
0.0
 41
20.0
 42
20.0
 43
20.0
  0
INSERT
  5
1E5
330
1DE
100
AcDbEntity
  8
AM_5
 62
     2
370
    -2
100
AcDbBlockReference
  2
_Open30
 10
5435.641319363133
 20
3085.661629932609
 30
0.0
 41
20.0
 42
20.0
 43
20.0
 50
180.0
  0
MTEXT
  5
1E6
330
1DE
100
AcDbEntity
  8
AM_5
 62
     0
100
AcDbMText
 10
5499.829136622016
 20
3108.161629932609
 30
0.0
 40
35.0
 41
0.0
 71
     5
 72
     1
  1
\A1;15
  7
スタイル１
 73
     1
 44
1.0
  0
POINT
  5
1E7
330
1DE
100
AcDbEntity
  8
DEFPOINTS
 62
     0
100
AcDbPoint
 10
5420.641319363131
 20
2824.506657257219
 30
0.0
  0
POINT
  5
1E8
330
1DE
100
AcDbEntity
  8
DEFPOINTS
 62
     0
100
AcDbPoint
 10
5435.641319363133
 20
2824.506657257219
 30
0.0
  0
POINT
  5
1E9
330
1DE
100
AcDbEntity
  8
DEFPOINTS
 62
     0
100
AcDbPoint
 10
5435.641319363133
 20
3085.661629932609
 30
0.0
  0
ENDBLK
  5
1EB
330
1DE
100
AcDbEntity
  8
0
100
AcDbBlockEnd
  0
BLOCK
  5
214
330
208
100
AcDbEntity
  8
0
100
AcDbBlockBegin
  2
*D51
 70
     1
 10
0.0
 20
0.0
 30
0.0
  3
*D51
  1

  0
LINE
  5
209
330
208
100
AcDbEntity
  8
AM_5
 62
     2
370
    -2
100
AcDbLine
 10
5415.641319363134
 20
2834.011374870699
 30
0.0
 11
5415.641319363134
 21
3183.161629932609
 31
0.0
  0
LINE
  5
20A
330
208
100
AcDbEntity
  8
AM_5
 62
     2
370
    -2
100
AcDbLine
 10
5435.641319363133
 20
2834.50665725722
 30
0.0
 11
5435.641319363133
 21
3183.161629932609
 31
0.0
  0
LINE
  5
20B
330
208
100
AcDbEntity
  8
AM_5
 62
     2
370
    -2
100
AcDbLine
 10
5395.641319363133
 20
3173.161629932609
 30
0.0
 11
5375.641319363133
 21
3173.161629932609
 31
0.0
  0
LINE
  5
20C
330
208
100
AcDbEntity
  8
AM_5
 62
     2
370
    -2
100
AcDbLine
 10
5455.641319363134
 20
3173.161629932609
 30
0.0
 11
5527.214923424047
 21
3173.161629932609
 31
0.0
  0
LINE
  5
20D
330
208
100
AcDbEntity
  8
AM_5
 62
     2
370
    -2
100
AcDbLine
 10
5415.641319363134
 20
3173.161629932609
 30
0.0
 11
5435.641319363133
 21
3173.161629932609
 31
0.0
  0
INSERT
  5
20E
330
208
100
AcDbEntity
  8
AM_5
 62
     2
370
    -2
100
AcDbBlockReference
  2
_Open30
 10
5415.641319363134
 20
3173.161629932609
 30
0.0
 41
20.0
 42
20.0
 43
20.0
  0
INSERT
  5
20F
330
208
100
AcDbEntity
  8
AM_5
 62
     2
370
    -2
100
AcDbBlockReference
  2
_Open30
 10
5435.641319363133
 20
3173.161629932609
 30
0.0
 41
20.0
 42
20.0
 43
20.0
 50
180.0
  0
MTEXT
  5
210
330
208
100
AcDbEntity
  8
AM_5
 62
     0
100
AcDbMText
 10
5501.42812139359
 20
3195.661629932609
 30
0.0
 40
35.0
 41
0.0
 71
     5
 72
     1
  1
\A1;20
  7
スタイル１
 73
     1
 44
1.0
  0
POINT
  5
211
330
208
100
AcDbEntity
  8
DEFPOINTS
 62
     0
100
AcDbPoint
 10
5415.641319363134
 20
2824.011374870698
 30
0.0
  0
POINT
  5
212
330
208
100
AcDbEntity
  8
DEFPOINTS
 62
     0
100
AcDbPoint
 10
5435.641319363133
 20
2824.506657257219
 30
0.0
  0
POINT
  5
213
330
208
100
AcDbEntity
  8
DEFPOINTS
 62
     0
100
AcDbPoint
 10
5435.641319363133
 20
3173.161629932609
 30
0.0
  0
ENDBLK
  5
215
330
208
100
AcDbEntity
  8
0
100
AcDbBlockEnd
  0
BLOCK
  5
326
330
31A
100
AcDbEntity
  8
0
100
AcDbBlockBegin
  2
*D52
 70
     1
 10
0.0
 20
0.0
 30
0.0
  3
*D52
  1

  0
LINE
  5
31B
330
31A
100
AcDbEntity
  8
AM_5
 62
     2
370
    -2
100
AcDbLine
 10
5410.641319363132
 20
2824.506657257219
 30
0.0
 11
5322.391300983911
 21
2824.506657257219
 31
0.0
  0
LINE
  5
31C
330
31A
100
AcDbEntity
  8
AM_5
 62
     2
370
    -2
100
AcDbLine
 10
5405.641319363134
 20
2824.011374870698
 30
0.0
 11
5322.391300983911
 21
2824.011374870698
 31
0.0
  0
LINE
  5
31D
330
31A
100
AcDbEntity
  8
AM_5
 62
     2
370
    -2
100
AcDbLine
 10
5332.391300983911
 20
2844.506657257219
 30
0.0
 11
5332.391300983911
 21
2864.506657257219
 31
0.0
  0
LINE
  5
31E
330
31A
100
AcDbEntity
  8
AM_5
 62
     2
370
    -2
100
AcDbLine
 10
5332.391300983911
 20
2804.011374870698
 30
0.0
 11
5332.391300983911
 21
2709.874319033135
 31
0.0
  0
LINE
  5
31F
330
31A
100
AcDbEntity
  8
AM_5
 62
     2
370
    -2
100
AcDbLine
 10
5332.391300983911
 20
2824.506657257219
 30
0.0
 11
5332.391300983911
 21
2824.011374870698
 31
0.0
  0
INSERT
  5
320
330
31A
100
AcDbEntity
  8
AM_5
 62
     2
370
    -2
100
AcDbBlockReference
  2
_Open30
 10
5332.391300983911
 20
2824.506657257219
 30
0.0
 41
20.0
 42
20.0
 43
20.0
 50
270.0
  0
INSERT
  5
321
330
31A
100
AcDbEntity
  8
AM_5
 62
     2
370
    -2
100
AcDbBlockReference
  2
_Open30
 10
5332.391300983911
 20
2824.011374870698
 30
0.0
 41
20.0
 42
20.0
 43
20.0
 50
90.0
  0
MTEXT
  5
322
330
31A
100
AcDbEntity
  8
AM_5
 62
     0
100
AcDbMText
 10
5309.89130098391
 20
2746.942846951917
 30
0.0
 40
35.0
 41
0.0
 71
     5
 72
     1
  1
\A1;0.5
  7
スタイル１
 11
0.0000000000000001
 21
1.0
 31
0.0
 73
     1
 44
1.0
  0
POINT
  5
323
330
31A
100
AcDbEntity
  8
DEFPOINTS
 62
     0
100
AcDbPoint
 10
5420.641319363131
 20
2824.506657257219
 30
0.0
  0
POINT
  5
324
330
31A
100
AcDbEntity
  8
DEFPOINTS
 62
     0
100
AcDbPoint
 10
5415.641319363134
 20
2824.011374870698
 30
0.0
  0
POINT
  5
325
330
31A
100
AcDbEntity
  8
DEFPOINTS
 62
     0
100
AcDbPoint
 10
5332.391300983911
 20
2824.011374870698
 30
0.0
  0
ENDBLK
  5
327
330
31A
100
AcDbEntity
  8
0
100
AcDbBlockEnd
  0
BLOCK
  5
45C
330
452
100
AcDbEntity
  8
0
100
AcDbBlockBegin
  2
*D53
 70
     1
 10
0.0
 20
0.0
 30
0.0
  3
*D53
  1

  0
LINE
  5
453
330
452
100
AcDbEntity
  8
AM_5
 62
     2
370
    -2
100
AcDbLine
 10
5951.614595228515
 20
1491.15143219817
 30
0.0
 11
5951.614595228515
 21
1678.289133333139
 31
0.0
  0
LINE
  5
454
330
452
100
AcDbEntity
  8
AM_5
 62
     2
370
    -2
100
AcDbLine
 10
7419.472017177986
 20
1491.15143219817
 30
0.0
 11
7419.472017177986
 21
1678.289133333139
 31
0.0
  0
LINE
  5
455
330
452
100
AcDbEntity
  8
AM_5
 62
     2
370
    -2
100
AcDbLine
 10
5971.614595228516
 20
1668.289133333139
 30
0.0
 11
7399.472017177986
 21
1668.289133333139
 31
0.0
  0
INSERT
  5
456
330
452
100
AcDbEntity
  8
AM_5
 62
     2
370
    -2
100
AcDbBlockReference
  2
_Open30
 10
5951.614595228515
 20
1668.289133333139
 30
0.0
 41
20.0
 42
20.0
 43
20.0
 50
180.0
  0
INSERT
  5
457
330
452
100
AcDbEntity
  8
AM_5
 62
     2
370
    -2
100
AcDbBlockReference
  2
_Open30
 10
7419.472017177986
 20
1668.289133333139
 30
0.0
 41
20.0
 42
20.0
 43
20.0
  0
MTEXT
  5
458
330
452
100
AcDbEntity
  8
AM_5
 62
     0
100
AcDbMText
 10
6685.54330620325
 20
1690.789133333139
 30
0.0
 40
35.0
 41
0.0
 71
     5
 72
     1
  1
\A1;1270 
  7
スタイル１
 73
     1
 44
1.0
  0
POINT
  5
459
330
452
100
AcDbEntity
  8
DEFPOINTS
 62
     0
100
AcDbPoint
 10
5951.614595228515
 20
1481.15143219817
 30
0.0
  0
POINT
  5
45A
330
452
100
AcDbEntity
  8
DEFPOINTS
 62
     0
100
AcDbPoint
 10
7419.472017177986
 20
1481.15143219817
 30
0.0
  0
POINT
  5
45B
330
452
100
AcDbEntity
  8
DEFPOINTS
 62
     0
100
AcDbPoint
 10
7419.472017177986
 20
1668.289133333139
 30
0.0
  0
ENDBLK
  5
45D
330
452
100
AcDbEntity
  8
0
100
AcDbBlockEnd
  0
BLOCK
  5
304
330
2F8
100
AcDbEntity
  8
0
100
AcDbBlockBegin
  2
*D54
 70
     1
 10
0.0
 20
0.0
 30
0.0
  3
*D54
  1

  0
LINE
  5
2F9
330
2F8
100
AcDbEntity
  8
AM_5
 62
     2
370
    -2
100
AcDbLine
 10
5415.641319363134
 20
1491.15143219817
 30
0.0
 11
5415.641319363134
 21
1678.289133333139
 31
0.0
  0
LINE
  5
2FA
330
2F8
100
AcDbEntity
  8
AM_5
 62
     2
370
    -2
100
AcDbLine
 10
5445.641319363133
 20
1491.15143219817
 30
0.0
 11
5445.641319363133
 21
1678.289133333139
 31
0.0
  0
LINE
  5
2FB
330
2F8
100
AcDbEntity
  8
AM_5
 62
     2
370
    -2
100
AcDbLine
 10
5395.641319363133
 20
1668.289133333139
 30
0.0
 11
5375.641319363133
 21
1668.289133333139
 31
0.0
  0
LINE
  5
2FC
330
2F8
100
AcDbEntity
  8
AM_5
 62
     2
370
    -2
100
AcDbLine
 10
5465.641319363133
 20
1668.289133333139
 30
0.0
 11
5513.407816825062
 21
1668.289133333139
 31
0.0
  0
LINE
  5
2FD
330
2F8
100
AcDbEntity
  8
AM_5
 62
     2
370
    -2
100
AcDbLine
 10
5415.641319363134
 20
1668.289133333139
 30
0.0
 11
5445.641319363133
 21
1668.289133333139
 31
0.0
  0
INSERT
  5
2FE
330
2F8
100
AcDbEntity
  8
AM_5
 62
     2
370
    -2
100
AcDbBlockReference
  2
_Open30
 10
5415.641319363134
 20
1668.289133333139
 30
0.0
 41
20.0
 42
20.0
 43
20.0
  0
INSERT
  5
2FF
330
2F8
100
AcDbEntity
  8
AM_5
 62
     2
370
    -2
100
AcDbBlockReference
  2
_Open30
 10
5445.641319363133
 20
1668.289133333139
 30
0.0
 41
20.0
 42
20.0
 43
20.0
 50
180.0
  0
MTEXT
  5
300
330
2F8
100
AcDbEntity
  8
AM_5
 62
     0
100
AcDbMText
 10
5499.524568094098
 20
1690.789133333139
 30
0.0
 40
35.0
 41
0.0
 71
     5
 72
     1
  1
\A1;6
  7
スタイル１
 73
     1
 44
1.0
  0
POINT
  5
301
330
2F8
100
AcDbEntity
  8
DEFPOINTS
 62
     0
100
AcDbPoint
 10
5415.641319363134
 20
1481.15143219817
 30
0.0
  0
POINT
  5
302
330
2F8
100
AcDbEntity
  8
DEFPOINTS
 62
     0
100
AcDbPoint
 10
5445.641319363133
 20
1481.15143219817
 30
0.0
  0
POINT
  5
303
330
2F8
100
AcDbEntity
  8
DEFPOINTS
 62
     0
100
AcDbPoint
 10
5445.641319363133
 20
1668.289133333139
 30
0.0
  0
ENDBLK
  5
305
330
2F8
100
AcDbEntity
  8
0
100
AcDbBlockEnd
  0
BLOCK
  5
664
330
65A
100
AcDbEntity
  8
0
100
AcDbBlockBegin
  2
*D55
 70
     1
 10
0.0
 20
0.0
 30
0.0
  3
*D55
  1

  0
LINE
  5
65B
330
65A
100
AcDbEntity
  8
AM_5
 62
     2
370
    -2
100
AcDbLine
 10
3376.573406694291
 20
3976.340026209344
 30
0.0
 11
3470.830499950661
 21
3976.340026209344
 31
0.0
  0
LINE
  5
65C
330
65A
100
AcDbEntity
  8
AM_5
 62
     2
370
    -2
100
AcDbLine
 10
3371.573474528894
 20
3896.38945241213
 30
0.0
 11
3470.830499950661
 21
3896.38945241213
 31
0.0
  0
LINE
  5
65D
330
65A
100
AcDbEntity
  8
AM_5
 62
     2
370
    -2
100
AcDbLine
 10
3460.830499950662
 20
3956.340026209343
 30
0.0
 11
3460.830499950662
 21
3916.389452412129
 31
0.0
  0
INSERT
  5
65E
330
65A
100
AcDbEntity
  8
AM_5
 62
     2
370
    -2
100
AcDbBlockReference
  2
_Open30
 10
3460.830499950662
 20
3976.340026209344
 30
0.0
 41
20.0
 42
20.0
 43
20.0
 50
90.0
  0
INSERT
  5
65F
330
65A
100
AcDbEntity
  8
AM_5
 62
     2
370
    -2
100
AcDbBlockReference
  2
_Open30
 10
3460.830499950662
 20
3896.38945241213
 30
0.0
 41
20.0
 42
20.0
 43
20.0
 50
270.0
  0
MTEXT
  5
660
330
65A
100
AcDbEntity
  8
AM_5
 62
     0
100
AcDbMText
 10
3438.330499950661
 20
3936.364739310738
 30
0.0
 40
35.0
 41
0.0
 71
     5
 72
     1
  1
\A1;t8
  7
スタイル１
 11
0.0000000000000001
 21
1.0
 31
0.0
 73
     1
 44
1.0
  0
POINT
  5
661
330
65A
100
AcDbEntity
  8
DEFPOINTS
 62
     0
100
AcDbPoint
 10
3366.573406694291
 20
3976.340026209344
 30
0.0
  0
POINT
  5
662
330
65A
100
AcDbEntity
  8
DEFPOINTS
 62
     0
100
AcDbPoint
 10
3361.573474528894
 20
3896.38945241213
 30
0.0
  0
POINT
  5
663
330
65A
100
AcDbEntity
  8
DEFPOINTS
 62
     0
100
AcDbPoint
 10
3460.830499950662
 20
3896.38945241213
 30
0.0
  0
ENDBLK
  5
665
330
65A
100
AcDbEntity
  8
0
100
AcDbBlockEnd
  0
BLOCK
  5
670
330
666
100
AcDbEntity
  8
0
100
AcDbBlockBegin
  2
*D56
 70
     1
 10
0.0
 20
0.0
 30
0.0
  3
*D56
  1

  0
LINE
  5
667
330
666
100
AcDbEntity
  8
AM_5
 62
     2
370
    -2
100
AcDbLine
 10
3371.468944155292
 20
3896.258813935696
 30
0.0
 11
3470.830499950661
 21
3896.258813935696
 31
0.0
  0
LINE
  5
668
330
666
100
AcDbEntity
  8
AM_5
 62
     2
370
    -2
100
AcDbLine
 10
3253.374486424665
 20
3836.258813935696
 30
0.0
 11
3470.830499950661
 21
3836.258813935696
 31
0.0
  0
LINE
  5
669
330
666
100
AcDbEntity
  8
AM_5
 62
     2
370
    -2
100
AcDbLine
 10
3460.830499950662
 20
3876.258813935695
 30
0.0
 11
3460.830499950662
 21
3856.258813935696
 31
0.0
  0
INSERT
  5
66A
330
666
100
AcDbEntity
  8
AM_5
 62
     2
370
    -2
100
AcDbBlockReference
  2
_Open30
 10
3460.830499950662
 20
3896.258813935696
 30
0.0
 41
20.0
 42
20.0
 43
20.0
 50
90.0
  0
INSERT
  5
66B
330
666
100
AcDbEntity
  8
AM_5
 62
     2
370
    -2
100
AcDbBlockReference
  2
_Open30
 10
3460.830499950662
 20
3836.258813935696
 30
0.0
 41
20.0
 42
20.0
 43
20.0
 50
270.0
  0
MTEXT
  5
66C
330
666
100
AcDbEntity
  8
AM_5
 62
     0
100
AcDbMText
 10
3438.330499950661
 20
3866.258813935697
 30
0.0
 40
35.0
 41
0.0
 71
     5
 72
     1
  1
\A1;6
  7
スタイル１
 11
0.0000000000000001
 21
1.0
 31
0.0
 73
     1
 44
1.0
  0
POINT
  5
66D
330
666
100
AcDbEntity
  8
DEFPOINTS
 62
     0
100
AcDbPoint
 10
3361.468944155292
 20
3896.258813935696
 30
0.0
  0
POINT
  5
66E
330
666
100
AcDbEntity
  8
DEFPOINTS
 62
     0
100
AcDbPoint
 10
3243.374486424665
 20
3836.258813935696
 30
0.0
  0
POINT
  5
66F
330
666
100
AcDbEntity
  8
DEFPOINTS
 62
     0
100
AcDbPoint
 10
3460.830499950662
 20
3836.258813935696
 30
0.0
  0
ENDBLK
  5
671
330
666
100
AcDbEntity
  8
0
100
AcDbBlockEnd
  0
BLOCK
  5
680
330
672
100
AcDbEntity
  8
0
100
AcDbBlockBegin
  2
*D57
 70
     1
 10
0.0
 20
0.0
 30
0.0
  3
*D57
  1

  0
LINE
  5
673
330
672
100
AcDbEntity
  8
AM_5
 62
     2
370
    -2
100
AcDbLine
 10
3093.374486424665
 20
4044.808808215132
 30
0.0
 11
3093.374486424665
 21
4171.029905917976
 31
0.0
  0
LINE
  5
674
330
672
100
AcDbEntity
  8
AM_5
 62
     2
370
    -2
100
AcDbLine
 10
3048.058309653951
 20
3984.748734507348
 30
0.0
 11
2960.988940433527
 21
4135.557305780099
 31
0.0
  0
ARC
  5
675
330
672
100
AcDbEntity
  8
AM_5
 62
     2
370
    -2
100
AcDbCircle
 10
3093.374486424665
 20
3906.258813935698
 30
0.0
 40
254.7710919822776
100
AcDbArc
 50
81.00204010513849
 51
85.50102005256924
  0
ARC
  5
676
330
672
100
AcDbEntity
  8
AM_5
 62
     2
370
    -2
100
AcDbCircle
 10
3093.374486424665
 20
3906.258813935698
 30
0.0
 40
254.7710919822776
100
AcDbArc
 50
124.4989799474305
 51
128.9979598948613
  0
ARC
  5
677
330
672
100
AcDbEntity
  8
AM_5
 62
     2
370
    -2
100
AcDbCircle
 10
3093.374486424665
 20
3906.258813935698
 30
0.0
 40
254.7710919822776
100
AcDbArc
 50
90.0
 51
119.9999999999998
  0
INSERT
  5
678
330
672
100
AcDbEntity
  8
AM_5
 62
     2
370
    -2
100
AcDbBlockReference
  2
_Open30
 10
3093.374486424665
 20
4161.029905917976
 30
0.0
 41
20.0
 42
20.0
 43
20.0
 50
177.7505100262846
  0
INSERT
  5
679
330
672
100
AcDbEntity
  8
AM_5
 62
     2
370
    -2
100
AcDbBlockReference
  2
_Open30
 10
2965.988940433527
 20
4126.897051742253
 30
0.0
 41
20.0
 42
20.0
 43
20.0
 50
32.24948997371519
  0
MTEXT
  5
67A
330
672
100
AcDbEntity
  8
AM_5
 62
     0
100
AcDbMText
 10
3045.716149442979
 20
4179.403356925642
 30
0.0
 40
35.0
 41
0.0
 71
     5
 72
     1
  1
\A1;30°
  7
スタイル１
 11
0.9851172765150771
 21
0.1718835405485845
 31
0.0
 73
     1
 44
1.0
  0
POINT
  5
67B
330
672
100
AcDbEntity
  8
DEFPOINTS
 62
     0
100
AcDbPoint
 10
3006.23764102965
 20
4145.665329061013
 30
0.0
  0
POINT
  5
67C
330
672
100
AcDbEntity
  8
DEFPOINTS
 62
     0
100
AcDbPoint
 10
3093.374486424665
 20
3906.258813935698
 30
0.0
  0
POINT
  5
67D
330
672
100
AcDbEntity
  8
DEFPOINTS
 62
     0
100
AcDbPoint
 10
3093.374486424665
 20
3812.686092783031
 30
0.0
  0
POINT
  5
67E
330
672
100
AcDbEntity
  8
DEFPOINTS
 62
     0
100
AcDbPoint
 10
3093.374486424665
 20
4034.808808215133
 30
0.0
  0
POINT
  5
67F
330
672
100
AcDbEntity
  8
DEFPOINTS
 62
     0
100
AcDbPoint
 10
3053.058309653952
 20
3976.088480469503
 30
0.0
  0
ENDBLK
  5
681
330
672
100
AcDbEntity
  8
0
100
AcDbBlockEnd
  0
BLOCK
  5
68F
330
682
100
AcDbEntity
  8
0
100
AcDbBlockBegin
  2
*D58
 70
     1
 10
0.0
 20
0.0
 30
0.0
  3
*D58
  1

  0
LINE
  5
683
330
682
100
AcDbEntity
  8
AM_5
 62
     2
370
    -2
100
AcDbLine
 10
3138.80939153604
 20
3984.954378025672
 30
0.0
 11
3225.760032415804
 21
4135.557305780096
 31
0.0
  0
LINE
  5
684
330
682
100
AcDbEntity
  8
AM_5
 62
     2
370
    -2
100
AcDbLine
 10
3093.374486424665
 20
4044.808808215133
 30
0.0
 11
3093.374486424665
 21
4171.029905917976
 31
0.0
  0
ARC
  5
685
330
682
100
AcDbEntity
  8
AM_5
 62
     2
370
    -2
100
AcDbCircle
 10
3093.374486424665
 20
3906.2588139357
 30
0.0
 40
254.7710919822757
100
AcDbArc
 50
51.00204010513824
 51
55.50102005256904
  0
ARC
  5
686
330
682
100
AcDbEntity
  8
AM_5
 62
     2
370
    -2
100
AcDbCircle
 10
3093.374486424665
 20
3906.2588139357
 30
0.0
 40
254.7710919822757
100
AcDbArc
 50
94.49897994743075
 51
98.99795989486156
  0
ARC
  5
687
330
682
100
AcDbEntity
  8
AM_5
 62
     2
370
    -2
100
AcDbCircle
 10
3093.374486424665
 20
3906.2588139357
 30
0.0
 40
254.7710919822757
100
AcDbArc
 50
59.99999999999982
 51
89.99999999999996
  0
INSERT
  5
688
330
682
100
AcDbEntity
  8
AM_5
 62
     2
370
    -2
100
AcDbBlockReference
  2
_Open30
 10
3220.760032415803
 20
4126.897051742253
 30
0.0
 41
20.0
 42
20.0
 43
20.0
 50
147.7505100262844
  0
INSERT
  5
689
330
682
100
AcDbEntity
  8
AM_5
 62
     2
370
    -2
100
AcDbBlockReference
  2
_Open30
 10
3093.374486424665
 20
4161.029905917975
 30
0.0
 41
20.0
 42
20.0
 43
20.0
 50
2.249489973715355
  0
MTEXT
  5
68A
330
682
100
AcDbEntity
  8
AM_5
 62
     0
100
AcDbMText
 10
3196.057655363897
 20
4181.445956337281
 30
0.0
 40
35.0
 41
0.0
 71
     5
 72
     1
  1
\A1;30°
  7
スタイル１
 73
     1
 44
1.0
  0
POINT
  5
68B
330
682
100
AcDbEntity
  8
DEFPOINTS
 62
     0
100
AcDbPoint
 10
3093.374486424665
 20
3906.2588139357
 30
0.0
  0
POINT
  5
68C
330
682
100
AcDbEntity
  8
DEFPOINTS
 62
     0
100
AcDbPoint
 10
3133.80939153604
 20
3976.294123987828
 30
0.0
  0
POINT
  5
68D
330
682
100
AcDbEntity
  8
DEFPOINTS
 62
     0
100
AcDbPoint
 10
3093.374486424665
 20
4034.808808215133
 30
0.0
  0
POINT
  5
68E
330
682
100
AcDbEntity
  8
DEFPOINTS
 62
     0
100
AcDbPoint
 10
3137.615022269601
 20
4157.15936056323
 30
0.0
  0
ENDBLK
  5
690
330
682
100
AcDbEntity
  8
0
100
AcDbBlockEnd
  0
BLOCK
  5
69D
330
691
100
AcDbEntity
  8
0
100
AcDbBlockBegin
  2
*D59
 70
     1
 10
0.0
 20
0.0
 30
0.0
  3
*D59
  1

  0
LINE
  5
692
330
691
100
AcDbEntity
  8
AM_5
 62
     2
370
    -2
100
AcDbLine
 10
3103.374486424665
 20
3896.258813935696
 30
0.0
 11
3192.742166228454
 21
3896.258813935696
 31
0.0
  0
LINE
  5
693
330
691
100
AcDbEntity
  8
AM_5
 62
     2
370
    -2
100
AcDbLine
 10
3103.374486424665
 20
3906.2588139357
 30
0.0
 11
3192.742166228454
 21
3906.2588139357
 31
0.0
  0
LINE
  5
694
330
691
100
AcDbEntity
  8
AM_5
 62
     2
370
    -2
100
AcDbLine
 10
3182.742166228454
 20
3926.258813935699
 30
0.0
 11
3182.742166228454
 21
3946.258813935699
 31
0.0
  0
LINE
  5
695
330
691
100
AcDbEntity
  8
AM_5
 62
     2
370
    -2
100
AcDbLine
 10
3182.742166228454
 20
3876.258813935695
 30
0.0
 11
3182.742166228454
 21
3836.842570280873
 31
0.0
  0
LINE
  5
696
330
691
100
AcDbEntity
  8
AM_5
 62
     2
370
    -2
100
AcDbLine
 10
3182.742166228454
 20
3906.2588139357
 30
0.0
 11
3182.742166228454
 21
3896.258813935696
 31
0.0
  0
INSERT
  5
697
330
691
100
AcDbEntity
  8
AM_5
 62
     2
370
    -2
100
AcDbBlockReference
  2
_Open30
 10
3182.742166228454
 20
3906.2588139357
 30
0.0
 41
20.0
 42
20.0
 43
20.0
 50
270.0
  0
INSERT
  5
698
330
691
100
AcDbEntity
  8
AM_5
 62
     2
370
    -2
100
AcDbBlockReference
  2
_Open30
 10
3182.742166228454
 20
3896.258813935696
 30
0.0
 41
20.0
 42
20.0
 43
20.0
 50
90.0
  0
MTEXT
  5
699
330
691
100
AcDbEntity
  8
AM_5
 62
     0
100
AcDbMText
 10
3160.242166228453
 20
3846.550692108285
 30
0.0
 40
35.0
 41
0.0
 71
     5
 72
     1
  1
\A1;1
  7
スタイル１
 11
0.0000000000000001
 21
1.0
 31
0.0
 73
     1
 44
1.0
  0
POINT
  5
69A
330
691
100
AcDbEntity
  8
DEFPOINTS
 62
     0
100
AcDbPoint
 10
3093.374486424665
 20
3896.258813935696
 30
0.0
  0
POINT
  5
69B
330
691
100
AcDbEntity
  8
DEFPOINTS
 62
     0
100
AcDbPoint
 10
3093.374486424665
 20
3906.2588139357
 30
0.0
  0
POINT
  5
69C
330
691
100
AcDbEntity
  8
DEFPOINTS
 62
     0
100
AcDbPoint
 10
3182.742166228454
 20
3906.2588139357
 30
0.0
  0
ENDBLK
  5
69E
330
691
100
AcDbEntity
  8
0
100
AcDbBlockEnd
  0
BLOCK
  5
6A9
330
69F
100
AcDbEntity
  8
0
100
AcDbBlockBegin
  2
*D60
 70
     1
 10
0.0
 20
0.0
 30
0.0
  3
*D60
  1

  0
LINE
  5
6A0
330
69F
100
AcDbEntity
  8
AM_5
 62
     2
370
    -2
100
AcDbLine
 10
2943.374486424665
 20
3826.258813935695
 30
0.0
 11
2943.374486424665
 21
3717.509621390367
 31
0.0
  0
LINE
  5
6A1
330
69F
100
AcDbEntity
  8
AM_5
 62
     2
370
    -2
100
AcDbLine
 10
3243.374486424665
 20
3826.258813935695
 30
0.0
 11
3243.374486424665
 21
3717.509621390367
 31
0.0
  0
LINE
  5
6A2
330
69F
100
AcDbEntity
  8
AM_5
 62
     2
370
    -2
100
AcDbLine
 10
2963.374486424665
 20
3727.509621390367
 30
0.0
 11
3223.374486424665
 21
3727.509621390367
 31
0.0
  0
INSERT
  5
6A3
330
69F
100
AcDbEntity
  8
AM_5
 62
     2
370
    -2
100
AcDbBlockReference
  2
_Open30
 10
2943.374486424665
 20
3727.509621390367
 30
0.0
 41
20.0
 42
20.0
 43
20.0
 50
180.0
  0
INSERT
  5
6A4
330
69F
100
AcDbEntity
  8
AM_5
 62
     2
370
    -2
100
AcDbBlockReference
  2
_Open30
 10
3243.374486424665
 20
3727.509621390367
 30
0.0
 41
20.0
 42
20.0
 43
20.0
  0
MTEXT
  5
6A5
330
69F
100
AcDbEntity
  8
AM_5
 62
     0
100
AcDbMText
 10
3093.374486424665
 20
3750.009621390367
 30
0.0
 40
35.0
 41
0.0
 71
     5
 72
     1
  1
\A1;30
  7
スタイル１
 73
     1
 44
1.0
  0
POINT
  5
6A6
330
69F
100
AcDbEntity
  8
DEFPOINTS
 62
     0
100
AcDbPoint
 10
2943.374486424665
 20
3836.258813935696
 30
0.0
  0
POINT
  5
6A7
330
69F
100
AcDbEntity
  8
DEFPOINTS
 62
     0
100
AcDbPoint
 10
3243.374486424665
 20
3836.258813935696
 30
0.0
  0
POINT
  5
6A8
330
69F
100
AcDbEntity
  8
DEFPOINTS
 62
     0
100
AcDbPoint
 10
3243.374486424665
 20
3727.509621390367
 30
0.0
  0
ENDBLK
  5
6AA
330
69F
100
AcDbEntity
  8
0
100
AcDbBlockEnd
  0
BLOCK
  5
710
330
706
100
AcDbEntity
  8
0
100
AcDbBlockBegin
  2
*D61
 70
     1
 10
0.0
 20
0.0
 30
0.0
  3
*D61
  1

  0
LINE
  5
707
330
706
100
AcDbEntity
  8
AM_5
 62
     2
370
    -2
100
AcDbLine
 10
2116.225096231191
 20
4022.90519022351
 30
0.0
 11
2116.225096231191
 21
4043.248052511109
 31
0.0
  0
LINE
  5
708
330
706
100
AcDbEntity
  8
AM_5
 62
     2
370
    -2
100
AcDbLine
 10
2001.225096231141
 20
3441.492292964679
 30
0.0
 11
2001.225096231141
 21
4043.248052511109
 31
0.0
  0
LINE
  5
709
330
706
100
AcDbEntity
  8
AM_5
 62
     2
370
    -2
100
AcDbLine
 10
2096.225096231191
 20
4033.248052511109
 30
0.0
 11
2021.225096231141
 21
4033.248052511109
 31
0.0
  0
INSERT
  5
70A
330
706
100
AcDbEntity
  8
AM_5
 62
     2
370
    -2
100
AcDbBlockReference
  2
_Open30
 10
2116.225096231191
 20
4033.248052511109
 30
0.0
 41
20.0
 42
20.0
 43
20.0
  0
INSERT
  5
70B
330
706
100
AcDbEntity
  8
AM_5
 62
     2
370
    -2
100
AcDbBlockReference
  2
_Open30
 10
2001.225096231141
 20
4033.248052511109
 30
0.0
 41
20.0
 42
20.0
 43
20.0
 50
180.0
  0
MTEXT
  5
70C
330
706
100
AcDbEntity
  8
AM_5
 62
     0
100
AcDbMText
 10
2058.725096231166
 20
4055.748052511109
 30
0.0
 40
35.0
 41
0.0
 71
     5
 72
     1
  1
\A1;115
  7
スタイル１
 73
     1
 44
1.0
  0
POINT
  5
70D
330
706
100
AcDbEntity
  8
DEFPOINTS
 62
     0
100
AcDbPoint
 10
2116.225096231191
 20
4012.905190223509
 30
0.0
  0
POINT
  5
70E
330
706
100
AcDbEntity
  8
DEFPOINTS
 62
     0
100
AcDbPoint
 10
2001.225096231141
 20
3431.492292964679
 30
0.0
  0
POINT
  5
70F
330
706
100
AcDbEntity
  8
DEFPOINTS
 62
     0
100
AcDbPoint
 10
2001.225096231141
 20
4033.248052511109
 30
0.0
  0
ENDBLK
  5
711
330
706
100
AcDbEntity
  8
0
100
AcDbBlockEnd
  0
BLOCK
  5
71D
330
713
100
AcDbEntity
  8
0
100
AcDbBlockBegin
  2
*D62
 70
     1
 10
0.0
 20
0.0
 30
0.0
  3
*D62
  1

  0
LINE
  5
714
330
713
100
AcDbEntity
  8
AM_5
 62
     2
370
    -2
100
AcDbLine
 10
2116.225096231191
 20
4151.504971611948
 30
0.0
 11
2116.225096231191
 21
4154.350380744666
 31
0.0
  0
LINE
  5
715
330
713
100
AcDbEntity
  8
AM_5
 62
     2
370
    -2
100
AcDbLine
 10
1701.225096231242
 20
4151.504971611948
 30
0.0
 11
1701.225096231242
 21
4154.350380744666
 31
0.0
  0
LINE
  5
716
330
713
100
AcDbEntity
  8
AM_5
 62
     2
370
    -2
100
AcDbLine
 10
2096.225096231191
 20
4144.350380744667
 30
0.0
 11
1721.225096231242
 21
4144.350380744667
 31
0.0
  0
INSERT
  5
717
330
713
100
AcDbEntity
  8
AM_5
 62
     2
370
    -2
100
AcDbBlockReference
  2
_Open30
 10
2116.225096231191
 20
4144.350380744667
 30
0.0
 41
20.0
 42
20.0
 43
20.0
  0
INSERT
  5
718
330
713
100
AcDbEntity
  8
AM_5
 62
     2
370
    -2
100
AcDbBlockReference
  2
_Open30
 10
1701.225096231242
 20
4144.350380744667
 30
0.0
 41
20.0
 42
20.0
 43
20.0
 50
180.0
  0
MTEXT
  5
719
330
713
100
AcDbEntity
  8
AM_5
 62
     0
100
AcDbMText
 10
1908.725096231217
 20
4166.850380744667
 30
0.0
 40
35.0
 41
0.0
 71
     5
 72
     1
  1
\A1;415
  7
スタイル１
 73
     1
 44
1.0
  0
POINT
  5
71A
330
713
100
AcDbEntity
  8
DEFPOINTS
 62
     0
100
AcDbPoint
 10
2116.225096231191
 20
4141.504971611948
 30
0.0
  0
POINT
  5
71B
330
713
100
AcDbEntity
  8
DEFPOINTS
 62
     0
100
AcDbPoint
 10
1701.225096231242
 20
4141.504971611948
 30
0.0
  0
POINT
  5
71C
330
713
100
AcDbEntity
  8
DEFPOINTS
 62
     0
100
AcDbPoint
 10
1701.225096231242
 20
4144.350380744667
 30
0.0
  0
ENDBLK
  5
71E
330
713
100
AcDbEntity
  8
0
100
AcDbBlockEnd
  0
BLOCK
  5
72A
330
720
100
AcDbEntity
  8
0
100
AcDbBlockBegin
  2
*D63
 70
     1
 10
0.0
 20
0.0
 30
0.0
  3
*D63
  1

  0
LINE
  5
721
330
720
100
AcDbEntity
  8
AM_5
 62
     2
370
    -2
100
AcDbLine
 10
2001.22509623114
 20
1032.538547075068
 30
0.0
 11
2001.22509623114
 21
430.6027875287077
 31
0.0
  0
LINE
  5
722
330
720
100
AcDbEntity
  8
AM_5
 62
     2
370
    -2
100
AcDbLine
 10
2116.22509623119
 20
443.07864876042
 30
0.0
 11
2116.22509623119
 21
430.6027875287077
 31
0.0
  0
LINE
  5
723
330
720
100
AcDbEntity
  8
AM_5
 62
     2
370
    -2
100
AcDbLine
 10
2021.22509623114
 20
440.6027875287077
 30
0.0
 11
2096.22509623119
 21
440.6027875287077
 31
0.0
  0
INSERT
  5
724
330
720
100
AcDbEntity
  8
AM_5
 62
     2
370
    -2
100
AcDbBlockReference
  2
_Open30
 10
2001.22509623114
 20
440.6027875287077
 30
0.0
 41
20.0
 42
20.0
 43
20.0
 50
180.0
  0
INSERT
  5
725
330
720
100
AcDbEntity
  8
AM_5
 62
     2
370
    -2
100
AcDbBlockReference
  2
_Open30
 10
2116.22509623119
 20
440.6027875287077
 30
0.0
 41
20.0
 42
20.0
 43
20.0
  0
MTEXT
  5
726
330
720
100
AcDbEntity
  8
AM_5
 62
     0
100
AcDbMText
 10
2058.725096231165
 20
463.1027875287077
 30
0.0
 40
35.0
 41
0.0
 71
     5
 72
     1
  1
\A1;115
  7
スタイル１
 73
     1
 44
1.0
  0
POINT
  5
727
330
720
100
AcDbEntity
  8
DEFPOINTS
 62
     0
100
AcDbPoint
 10
2001.22509623114
 20
1042.538547075068
 30
0.0
  0
POINT
  5
728
330
720
100
AcDbEntity
  8
DEFPOINTS
 62
     0
100
AcDbPoint
 10
2116.22509623119
 20
453.07864876042
 30
0.0
  0
POINT
  5
729
330
720
100
AcDbEntity
  8
DEFPOINTS
 62
     0
100
AcDbPoint
 10
2116.22509623119
 20
440.6027875287077
 30
0.0
  0
ENDBLK
  5
72B
330
720
100
AcDbEntity
  8
0
100
AcDbBlockEnd
  0
BLOCK
  5
739
330
72D
100
AcDbEntity
  8
0
100
AcDbBlockBegin
  2
*D64
 70
     1
 10
0.0
 20
0.0
 30
0.0
  3
*D64
  1

  0
LINE
  5
72E
330
72D
100
AcDbEntity
  8
AM_5
 62
     2
370
    -2
100
AcDbLine
 10
5445.641319363133
 20
2178.899716737086
 30
0.0
 11
5621.313859358235
 21
2178.899716737086
 31
0.0
  0
LINE
  5
72F
330
72D
100
AcDbEntity
  8
AM_5
 62
     2
370
    -2
100
AcDbLine
 10
5425.641319363133
 20
2174.816501430273
 30
0.0
 11
5621.313859358235
 21
2174.816501430273
 31
0.0
  0
LINE
  5
730
330
72D
100
AcDbEntity
  8
AM_5
 62
     2
370
    -2
100
AcDbLine
 10
5611.313859358236
 20
2198.899716737086
 30
0.0
 11
5611.313859358236
 21
2218.899716737085
 31
0.0
  0
LINE
  5
731
330
72D
100
AcDbEntity
  8
AM_5
 62
     2
370
    -2
100
AcDbLine
 10
5611.313859358236
 20
2154.816501430273
 30
0.0
 11
5611.313859358236
 21
2066.897719704384
 31
0.0
  0
LINE
  5
732
330
72D
100
AcDbEntity
  8
AM_5
 62
     2
370
    -2
100
AcDbLine
 10
5611.313859358236
 20
2178.899716737086
 30
0.0
 11
5611.313859358236
 21
2174.816501430273
 31
0.0
  0
INSERT
  5
733
330
72D
100
AcDbEntity
  8
AM_5
 62
     2
370
    -2
100
AcDbBlockReference
  2
_Open30
 10
5611.313859358236
 20
2178.899716737086
 30
0.0
 41
20.0
 42
20.0
 43
20.0
 50
270.0
  0
INSERT
  5
734
330
72D
100
AcDbEntity
  8
AM_5
 62
     2
370
    -2
100
AcDbBlockReference
  2
_Open30
 10
5611.313859358236
 20
2174.816501430273
 30
0.0
 41
20.0
 42
20.0
 43
20.0
 50
90.0
  0
MTEXT
  5
735
330
72D
100
AcDbEntity
  8
AM_5
 62
     0
100
AcDbMText
 10
5588.813859358235
 20
2100.85711056733
 30
0.0
 40
35.0
 41
0.0
 71
     5
 72
     1
  1
\A1;4.1
  7
スタイル１
 11
0.0000000000000001
 21
1.0
 31
0.0
 73
     1
 44
1.0
  0
POINT
  5
736
330
72D
100
AcDbEntity
  8
DEFPOINTS
 62
     0
100
AcDbPoint
 10
5435.641319363133
 20
2178.899716737086
 30
0.0
  0
POINT
  5
737
330
72D
100
AcDbEntity
  8
DEFPOINTS
 62
     0
100
AcDbPoint
 10
5415.641319363134
 20
2174.816501430273
 30
0.0
  0
POINT
  5
738
330
72D
100
AcDbEntity
  8
DEFPOINTS
 62
     0
100
AcDbPoint
 10
5611.313859358236
 20
2174.816501430273
 30
0.0
  0
ENDBLK
  5
73A
330
72D
100
AcDbEntity
  8
0
100
AcDbBlockEnd
  0
BLOCK
  5
745
330
73B
100
AcDbEntity
  8
0
100
AcDbBlockBegin
  2
*D65
 70
     1
 10
0.0
 20
0.0
 30
0.0
  3
*D65
  1

  0
LINE
  5
73C
330
73B
100
AcDbEntity
  8
AM_5
 62
     2
370
    -2
100
AcDbLine
 10
5445.641319363133
 20
2824.506657257219
 30
0.0
 11
5621.313859358235
 21
2824.506657257219
 31
0.0
  0
LINE
  5
73D
330
73B
100
AcDbEntity
  8
AM_5
 62
     2
370
    -2
100
AcDbLine
 10
5445.641319363133
 20
2178.899716737086
 30
0.0
 11
5621.313859358235
 21
2178.899716737086
 31
0.0
  0
LINE
  5
73E
330
73B
100
AcDbEntity
  8
AM_5
 62
     2
370
    -2
100
AcDbLine
 10
5611.313859358236
 20
2804.506657257219
 30
0.0
 11
5611.313859358236
 21
2198.899716737086
 31
0.0
  0
INSERT
  5
73F
330
73B
100
AcDbEntity
  8
AM_5
 62
     2
370
    -2
100
AcDbBlockReference
  2
_Open30
 10
5611.313859358236
 20
2824.506657257219
 30
0.0
 41
20.0
 42
20.0
 43
20.0
 50
90.0
  0
INSERT
  5
740
330
73B
100
AcDbEntity
  8
AM_5
 62
     2
370
    -2
100
AcDbBlockReference
  2
_Open30
 10
5611.313859358236
 20
2178.899716737086
 30
0.0
 41
20.0
 42
20.0
 43
20.0
 50
270.0
  0
MTEXT
  5
741
330
73B
100
AcDbEntity
  8
AM_5
 62
     0
100
AcDbMText
 10
5588.813859358235
 20
2501.703186997154
 30
0.0
 40
35.0
 41
0.0
 71
     5
 72
     1
  1
\A1;645.6
  7
スタイル１
 11
0.0000000000000001
 21
1.0
 31
0.0
 73
     1
 44
1.0
  0
POINT
  5
742
330
73B
100
AcDbEntity
  8
DEFPOINTS
 62
     0
100
AcDbPoint
 10
5435.641319363133
 20
2824.506657257219
 30
0.0
  0
POINT
  5
743
330
73B
100
AcDbEntity
  8
DEFPOINTS
 62
     0
100
AcDbPoint
 10
5435.641319363133
 20
2178.899716737086
 30
0.0
  0
POINT
  5
744
330
73B
100
AcDbEntity
  8
DEFPOINTS
 62
     0
100
AcDbPoint
 10
5611.313859358236
 20
2178.899716737086
 30
0.0
  0
ENDBLK
  5
746
330
73B
100
AcDbEntity
  8
0
100
AcDbBlockEnd
  0
BLOCK
  5
751
330
747
100
AcDbEntity
  8
0
100
AcDbBlockBegin
  2
*D66
 70
     1
 10
0.0
 20
0.0
 30
0.0
  3
*D66
  1

  0
LINE
  5
748
330
747
100
AcDbEntity
  8
AM_5
 62
     2
370
    -2
100
AcDbLine
 10
5445.641319363133
 20
2824.506657257219
 30
0.0
 11
5708.813859358236
 21
2824.506657257219
 31
0.0
  0
LINE
  5
749
330
747
100
AcDbEntity
  8
AM_5
 62
     2
370
    -2
100
AcDbLine
 10
5425.641319363133
 20
2174.816501430273
 30
0.0
 11
5708.813859358236
 21
2174.816501430273
 31
0.0
  0
LINE
  5
74A
330
747
100
AcDbEntity
  8
AM_5
 62
     2
370
    -2
100
AcDbLine
 10
5698.813859358235
 20
2804.506657257219
 30
0.0
 11
5698.813859358235
 21
2194.816501430273
 31
0.0
  0
INSERT
  5
74B
330
747
100
AcDbEntity
  8
AM_5
 62
     2
370
    -2
100
AcDbBlockReference
  2
_Open30
 10
5698.813859358235
 20
2824.506657257219
 30
0.0
 41
20.0
 42
20.0
 43
20.0
 50
90.0
  0
INSERT
  5
74C
330
747
100
AcDbEntity
  8
AM_5
 62
     2
370
    -2
100
AcDbBlockReference
  2
_Open30
 10
5698.813859358235
 20
2174.816501430273
 30
0.0
 41
20.0
 42
20.0
 43
20.0
 50
270.0
  0
MTEXT
  5
74D
330
747
100
AcDbEntity
  8
AM_5
 62
     0
100
AcDbMText
 10
5676.313859358234
 20
2499.661579343747
 30
0.0
 40
35.0
 41
0.0
 71
     5
 72
     1
  1
\A1;649.7
  7
スタイル１
 11
0.0000000000000001
 21
1.0
 31
0.0
 73
     1
 44
1.0
  0
POINT
  5
74E
330
747
100
AcDbEntity
  8
DEFPOINTS
 62
     0
100
AcDbPoint
 10
5435.641319363133
 20
2824.506657257219
 30
0.0
  0
POINT
  5
74F
330
747
100
AcDbEntity
  8
DEFPOINTS
 62
     0
100
AcDbPoint
 10
5415.641319363134
 20
2174.816501430273
 30
0.0
  0
POINT
  5
750
330
747
100
AcDbEntity
  8
DEFPOINTS
 62
     0
100
AcDbPoint
 10
5698.813859358235
 20
2174.816501430273
 30
0.0
  0
ENDBLK
  5
752
330
747
100
AcDbEntity
  8
0
100
AcDbBlockEnd
  0
BLOCK
  5
75D
330
753
100
AcDbEntity
  8
0
100
AcDbBlockBegin
  2
*D67
 70
     1
 10
0.0
 20
0.0
 30
0.0
  3
*D67
  1

  0
LINE
  5
754
330
753
100
AcDbEntity
  8
AM_5
 62
     2
370
    -2
100
AcDbLine
 10
7221.614595228515
 20
2824.50665725722
 30
0.0
 11
7479.581080980849
 21
2824.50665725722
 31
0.0
  0
LINE
  5
755
330
753
100
AcDbEntity
  8
AM_5
 62
     2
370
    -2
100
AcDbLine
 10
7133.281261895182
 20
2675.301159147232
 30
0.0
 11
7479.581080980849
 21
2675.301159147231
 31
0.0
  0
LINE
  5
756
330
753
100
AcDbEntity
  8
AM_5
 62
     2
370
    -2
100
AcDbLine
 10
7469.581080980848
 20
2804.506657257221
 30
0.0
 11
7469.581080980848
 21
2695.301159147232
 31
0.0
  0
INSERT
  5
757
330
753
100
AcDbEntity
  8
AM_5
 62
     2
370
    -2
100
AcDbBlockReference
  2
_Open30
 10
7469.581080980848
 20
2824.50665725722
 30
0.0
 41
20.0
 42
20.0
 43
20.0
 50
90.0
  0
INSERT
  5
758
330
753
100
AcDbEntity
  8
AM_5
 62
     2
370
    -2
100
AcDbBlockReference
  2
_Open30
 10
7469.581080980848
 20
2675.301159147231
 30
0.0
 41
20.0
 42
20.0
 43
20.0
 50
270.0
  0
MTEXT
  5
759
330
753
100
AcDbEntity
  8
AM_5
 62
     0
100
AcDbMText
 10
7447.081080980847
 20
2749.903908202227
 30
0.0
 40
35.0
 41
0.0
 71
     5
 72
     1
  1
\A1;149.2
  7
スタイル１
 11
0.0000000000000001
 21
1.0
 31
0.0
 73
     1
 44
1.0
  0
POINT
  5
75A
330
753
100
AcDbEntity
  8
DEFPOINTS
 62
     0
100
AcDbPoint
 10
7211.614595228515
 20
2824.50665725722
 30
0.0
  0
POINT
  5
75B
330
753
100
AcDbEntity
  8
DEFPOINTS
 62
     0
100
AcDbPoint
 10
7123.281261895181
 20
2675.301159147232
 30
0.0
  0
POINT
  5
75C
330
753
100
AcDbEntity
  8
DEFPOINTS
 62
     0
100
AcDbPoint
 10
7469.581080980848
 20
2675.301159147231
 30
0.0
  0
ENDBLK
  5
75E
330
753
100
AcDbEntity
  8
0
100
AcDbBlockEnd
  0
BLOCK
  5
769
330
75F
100
AcDbEntity
  8
0
100
AcDbBlockBegin
  2
*D68
 70
     1
 10
0.0
 20
0.0
 30
0.0
  3
*D68
  1

  0
LINE
  5
760
330
75F
100
AcDbEntity
  8
AM_5
 62
     2
370
    -2
100
AcDbLine
 10
7221.614595228515
 20
2824.50665725722
 30
0.0
 11
7567.081080980848
 21
2824.50665725722
 31
0.0
  0
LINE
  5
761
330
75F
100
AcDbEntity
  8
AM_5
 62
     2
370
    -2
100
AcDbLine
 10
7221.614595228516
 20
2178.899716737085
 30
0.0
 11
7567.081080980848
 21
2178.899716737085
 31
0.0
  0
LINE
  5
762
330
75F
100
AcDbEntity
  8
AM_5
 62
     2
370
    -2
100
AcDbLine
 10
7557.081080980847
 20
2804.506657257221
 30
0.0
 11
7557.081080980847
 21
2198.899716737085
 31
0.0
  0
INSERT
  5
763
330
75F
100
AcDbEntity
  8
AM_5
 62
     2
370
    -2
100
AcDbBlockReference
  2
_Open30
 10
7557.081080980847
 20
2824.50665725722
 30
0.0
 41
20.0
 42
20.0
 43
20.0
 50
90.0
  0
INSERT
  5
764
330
75F
100
AcDbEntity
  8
AM_5
 62
     2
370
    -2
100
AcDbBlockReference
  2
_Open30
 10
7557.081080980847
 20
2178.899716737085
 30
0.0
 41
20.0
 42
20.0
 43
20.0
 50
270.0
  0
MTEXT
  5
765
330
75F
100
AcDbEntity
  8
AM_5
 62
     0
100
AcDbMText
 10
7534.581080980847
 20
2501.703186997154
 30
0.0
 40
35.0
 41
0.0
 71
     5
 72
     1
  1
\A1;645.6
  7
スタイル１
 11
0.0000000000000001
 21
1.0
 31
0.0
 73
     1
 44
1.0
  0
POINT
  5
766
330
75F
100
AcDbEntity
  8
DEFPOINTS
 62
     0
100
AcDbPoint
 10
7211.614595228515
 20
2824.50665725722
 30
0.0
  0
POINT
  5
767
330
75F
100
AcDbEntity
  8
DEFPOINTS
 62
     0
100
AcDbPoint
 10
7211.614595228517
 20
2178.899716737085
 30
0.0
  0
POINT
  5
768
330
75F
100
AcDbEntity
  8
DEFPOINTS
 62
     0
100
AcDbPoint
 10
7557.081080980847
 20
2178.899716737085
 30
0.0
  0
ENDBLK
  5
76A
330
75F
100
AcDbEntity
  8
0
100
AcDbBlockEnd
  0
BLOCK
  5
775
330
76B
100
AcDbEntity
  8
0
100
AcDbBlockBegin
  2
*D69
 70
     1
 10
0.0
 20
0.0
 30
0.0
  3
*D69
  1

  0
LINE
  5
76C
330
76B
100
AcDbEntity
  8
AM_5
 62
     2
370
    -2
100
AcDbLine
 10
7221.614595228515
 20
2824.50665725722
 30
0.0
 11
7654.581080980848
 21
2824.50665725722
 31
0.0
  0
LINE
  5
76D
330
76B
100
AcDbEntity
  8
AM_5
 62
     2
370
    -2
100
AcDbLine
 10
7221.614595228517
 20
2174.816501430273
 30
0.0
 11
7654.581080980848
 21
2174.816501430273
 31
0.0
  0
LINE
  5
76E
330
76B
100
AcDbEntity
  8
AM_5
 62
     2
370
    -2
100
AcDbLine
 10
7644.581080980848
 20
2804.506657257221
 30
0.0
 11
7644.581080980848
 21
2194.816501430273
 31
0.0
  0
INSERT
  5
76F
330
76B
100
AcDbEntity
  8
AM_5
 62
     2
370
    -2
100
AcDbBlockReference
  2
_Open30
 10
7644.581080980848
 20
2824.50665725722
 30
0.0
 41
20.0
 42
20.0
 43
20.0
 50
90.0
  0
INSERT
  5
770
330
76B
100
AcDbEntity
  8
AM_5
 62
     2
370
    -2
100
AcDbBlockReference
  2
_Open30
 10
7644.581080980848
 20
2174.816501430273
 30
0.0
 41
20.0
 42
20.0
 43
20.0
 50
270.0
  0
MTEXT
  5
771
330
76B
100
AcDbEntity
  8
AM_5
 62
     0
100
AcDbMText
 10
7622.081080980847
 20
2499.661579343748
 30
0.0
 40
35.0
 41
0.0
 71
     5
 72
     1
  1
\A1;649.7
  7
スタイル１
 11
0.0000000000000001
 21
1.0
 31
0.0
 73
     1
 44
1.0
  0
POINT
  5
772
330
76B
100
AcDbEntity
  8
DEFPOINTS
 62
     0
100
AcDbPoint
 10
7211.614595228515
 20
2824.50665725722
 30
0.0
  0
POINT
  5
773
330
76B
100
AcDbEntity
  8
DEFPOINTS
 62
     0
100
AcDbPoint
 10
7211.614595228517
 20
2174.816501430273
 30
0.0
  0
POINT
  5
774
330
76B
100
AcDbEntity
  8
DEFPOINTS
 62
     0
100
AcDbPoint
 10
7644.581080980848
 20
2174.816501430273
 30
0.0
  0
ENDBLK
  5
776
330
76B
100
AcDbEntity
  8
0
100
AcDbBlockEnd
  0
BLOCK
  5
783
330
777
100
AcDbEntity
  8
0
100
AcDbBlockBegin
  2
*D70
 70
     1
 10
0.0
 20
0.0
 30
0.0
  3
*D70
  1

  0
LINE
  5
778
330
777
100
AcDbEntity
  8
AM_5
 62
     2
370
    -2
100
AcDbLine
 10
7221.614595228516
 20
2178.899716737085
 30
0.0
 11
7567.081080980848
 21
2178.899716737085
 31
0.0
  0
LINE
  5
779
330
777
100
AcDbEntity
  8
AM_5
 62
     2
370
    -2
100
AcDbLine
 10
7221.614595228517
 20
2174.816501430273
 30
0.0
 11
7567.081080980848
 21
2174.816501430273
 31
0.0
  0
LINE
  5
77A
330
777
100
AcDbEntity
  8
AM_5
 62
     2
370
    -2
100
AcDbLine
 10
7557.081080980847
 20
2198.899716737085
 30
0.0
 11
7557.081080980847
 21
2218.899716737085
 31
0.0
  0
LINE
  5
77B
330
777
100
AcDbEntity
  8
AM_5
 62
     2
370
    -2
100
AcDbLine
 10
7557.081080980847
 20
2154.816501430273
 30
0.0
 11
7557.081080980847
 21
2066.897719704384
 31
0.0
  0
LINE
  5
77C
330
777
100
AcDbEntity
  8
AM_5
 62
     2
370
    -2
100
AcDbLine
 10
7557.081080980847
 20
2178.899716737085
 30
0.0
 11
7557.081080980847
 21
2174.816501430273
 31
0.0
  0
INSERT
  5
77D
330
777
100
AcDbEntity
  8
AM_5
 62
     2
370
    -2
100
AcDbBlockReference
  2
_Open30
 10
7557.081080980847
 20
2178.899716737085
 30
0.0
 41
20.0
 42
20.0
 43
20.0
 50
270.0
  0
INSERT
  5
77E
330
777
100
AcDbEntity
  8
AM_5
 62
     2
370
    -2
100
AcDbBlockReference
  2
_Open30
 10
7557.081080980847
 20
2174.816501430273
 30
0.0
 41
20.0
 42
20.0
 43
20.0
 50
90.0
  0
MTEXT
  5
77F
330
777
100
AcDbEntity
  8
AM_5
 62
     0
100
AcDbMText
 10
7534.581080980847
 20
2100.85711056733
 30
0.0
 40
35.0
 41
0.0
 71
     5
 72
     1
  1
\A1;4.1
  7
スタイル１
 11
0.0000000000000001
 21
1.0
 31
0.0
 73
     1
 44
1.0
  0
POINT
  5
780
330
777
100
AcDbEntity
  8
DEFPOINTS
 62
     0
100
AcDbPoint
 10
7211.614595228517
 20
2178.899716737085
 30
0.0
  0
POINT
  5
781
330
777
100
AcDbEntity
  8
DEFPOINTS
 62
     0
100
AcDbPoint
 10
7211.614595228517
 20
2174.816501430273
 30
0.0
  0
POINT
  5
782
330
777
100
AcDbEntity
  8
DEFPOINTS
 62
     0
100
AcDbPoint
 10
7557.081080980847
 20
2174.816501430273
 30
0.0
  0
ENDBLK
  5
784
330
777
100
AcDbEntity
  8
0
100
AcDbBlockEnd
  0
BLOCK
  5
7A1
330
795
100
AcDbEntity
  8
0
100
AcDbBlockBegin
  2
*D71
 70
     1
 10
0.0
 20
0.0
 30
0.0
  3
*D71
  1

  0
LINE
  5
8AC
330
795
100
AcDbEntity
  8
AM_5
 62
     2
370
    -2
100
AcDbLine
 10
4795.519761809157
 20
2829.553833392008
 30
0.0
 11
4795.519761809157
 21
3095.661629932608
 31
0.0
  0
LINE
  5
8AD
330
795
100
AcDbEntity
  8
AM_5
 62
     2
370
    -2
100
AcDbLine
 10
4845.519761809115
 20
2834.506657257218
 30
0.0
 11
4845.519761809115
 21
3095.661629932608
 31
0.0
  0
LINE
  5
8AE
330
795
100
AcDbEntity
  8
AM_5
 62
     2
370
    -2
100
AcDbLine
 10
4865.519761809115
 20
3085.661629932609
 30
0.0
 11
4885.519761809115
 21
3085.661629932609
 31
0.0
  0
LINE
  5
8AF
330
795
100
AcDbEntity
  8
AM_5
 62
     2
370
    -2
100
AcDbLine
 10
4775.519761809157
 20
3085.661629932609
 30
0.0
 11
4727.397934397989
 21
3085.661629932609
 31
0.0
  0
LINE
  5
8B0
330
795
100
AcDbEntity
  8
AM_5
 62
     2
370
    -2
100
AcDbLine
 10
4845.519761809115
 20
3085.661629932609
 30
0.0
 11
4795.519761809157
 21
3085.661629932609
 31
0.0
  0
INSERT
  5
8B1
330
795
100
AcDbEntity
  8
AM_5
 62
     2
370
    -2
100
AcDbBlockReference
  2
_Open30
 10
4845.519761809115
 20
3085.661629932609
 30
0.0
 41
20.0
 42
20.0
 43
20.0
 50
180.0
  0
INSERT
  5
8B2
330
795
100
AcDbEntity
  8
AM_5
 62
     2
370
    -2
100
AcDbBlockReference
  2
_Open30
 10
4795.519761809157
 20
3085.661629932609
 30
0.0
 41
20.0
 42
20.0
 43
20.0
  0
MTEXT
  5
8B3
330
795
100
AcDbEntity
  8
AM_5
 62
     0
100
AcDbMText
 10
4741.458848103573
 20
3108.161629932609
 30
0.0
 40
35.0
 41
0.0
 71
     5
 72
     1
  1
\A1;5
  7
スタイル１
 73
     1
 44
1.0
  0
POINT
  5
8B4
330
795
100
AcDbEntity
  8
DEFPOINTS
 62
     0
100
AcDbPoint
 10
4795.519761809157
 20
2819.553833392007
 30
0.0
  0
POINT
  5
8B5
330
795
100
AcDbEntity
  8
DEFPOINTS
 62
     0
100
AcDbPoint
 10
4845.519761809115
 20
2824.506657257218
 30
0.0
  0
POINT
  5
8B6
330
795
100
AcDbEntity
  8
DEFPOINTS
 62
     0
100
AcDbPoint
 10
4845.519761809115
 20
3085.661629932609
 30
0.0
  0
ENDBLK
  5
7A2
330
795
100
AcDbEntity
  8
0
100
AcDbBlockEnd
  0
BLOCK
  5
7AE
330
7A4
100
AcDbEntity
  8
0
100
AcDbBlockBegin
  2
*D72
 70
     1
 10
0.0
 20
0.0
 30
0.0
  3
*D72
  1

  0
LINE
  5
882
330
7A4
100
AcDbEntity
  8
AM_5
 62
     2
370
    -2
100
AcDbLine
 10
4845.519761809115
 20
2834.506657257218
 30
0.0
 11
4845.519761809115
 21
3095.661629932608
 31
0.0
  0
LINE
  5
883
330
7A4
100
AcDbEntity
  8
AM_5
 62
     2
370
    -2
100
AcDbLine
 10
4995.519761809159
 20
2834.50665725722
 30
0.0
 11
4995.519761809159
 21
3095.661629932608
 31
0.0
  0
LINE
  5
884
330
7A4
100
AcDbEntity
  8
AM_5
 62
     2
370
    -2
100
AcDbLine
 10
4865.519761809115
 20
3085.661629932609
 30
0.0
 11
4975.519761809159
 21
3085.661629932609
 31
0.0
  0
INSERT
  5
885
330
7A4
100
AcDbEntity
  8
AM_5
 62
     2
370
    -2
100
AcDbBlockReference
  2
_Open30
 10
4845.519761809115
 20
3085.661629932609
 30
0.0
 41
20.0
 42
20.0
 43
20.0
 50
180.0
  0
INSERT
  5
886
330
7A4
100
AcDbEntity
  8
AM_5
 62
     2
370
    -2
100
AcDbBlockReference
  2
_Open30
 10
4995.519761809159
 20
3085.661629932609
 30
0.0
 41
20.0
 42
20.0
 43
20.0
  0
MTEXT
  5
887
330
7A4
100
AcDbEntity
  8
AM_5
 62
     0
100
AcDbMText
 10
4920.519761809137
 20
3108.161629932609
 30
0.0
 40
35.0
 41
0.0
 71
     5
 72
     1
  1
\A1;15
  7
スタイル１
 73
     1
 44
1.0
  0
POINT
  5
888
330
7A4
100
AcDbEntity
  8
DEFPOINTS
 62
     0
100
AcDbPoint
 10
4845.519761809115
 20
2824.506657257218
 30
0.0
  0
POINT
  5
889
330
7A4
100
AcDbEntity
  8
DEFPOINTS
 62
     0
100
AcDbPoint
 10
4995.519761809159
 20
2824.506657257219
 30
0.0
  0
POINT
  5
88A
330
7A4
100
AcDbEntity
  8
DEFPOINTS
 62
     0
100
AcDbPoint
 10
4995.519761809159
 20
3085.661629932609
 30
0.0
  0
ENDBLK
  5
7AF
330
7A4
100
AcDbEntity
  8
0
100
AcDbBlockEnd
  0
BLOCK
  5
7D1
330
7C7
100
AcDbEntity
  8
0
100
AcDbBlockBegin
  2
*D73
 70
     1
 10
0.0
 20
0.0
 30
0.0
  3
*D73
  1

  0
LINE
  5
879
330
7C7
100
AcDbEntity
  8
AM_5
 62
     2
370
    -2
100
AcDbLine
 10
4795.519761809157
 20
2829.553833392008
 30
0.0
 11
4795.519761809157
 21
3183.161629932609
 31
0.0
  0
LINE
  5
87A
330
7C7
100
AcDbEntity
  8
AM_5
 62
     2
370
    -2
100
AcDbLine
 10
4995.519761809159
 20
2834.50665725722
 30
0.0
 11
4995.519761809159
 21
3183.161629932609
 31
0.0
  0
LINE
  5
87B
330
7C7
100
AcDbEntity
  8
AM_5
 62
     2
370
    -2
100
AcDbLine
 10
4815.519761809157
 20
3173.161629932609
 30
0.0
 11
4975.519761809159
 21
3173.161629932609
 31
0.0
  0
INSERT
  5
87C
330
7C7
100
AcDbEntity
  8
AM_5
 62
     2
370
    -2
100
AcDbBlockReference
  2
_Open30
 10
4795.519761809157
 20
3173.161629932609
 30
0.0
 41
20.0
 42
20.0
 43
20.0
 50
180.0
  0
INSERT
  5
87D
330
7C7
100
AcDbEntity
  8
AM_5
 62
     2
370
    -2
100
AcDbBlockReference
  2
_Open30
 10
4995.519761809159
 20
3173.161629932609
 30
0.0
 41
20.0
 42
20.0
 43
20.0
  0
MTEXT
  5
87E
330
7C7
100
AcDbEntity
  8
AM_5
 62
     0
100
AcDbMText
 10
4895.519761809158
 20
3195.661629932609
 30
0.0
 40
35.0
 41
0.0
 71
     5
 72
     1
  1
\A1;20
  7
スタイル１
 73
     1
 44
1.0
  0
POINT
  5
87F
330
7C7
100
AcDbEntity
  8
DEFPOINTS
 62
     0
100
AcDbPoint
 10
4795.519761809157
 20
2819.553833392007
 30
0.0
  0
POINT
  5
880
330
7C7
100
AcDbEntity
  8
DEFPOINTS
 62
     0
100
AcDbPoint
 10
4995.519761809159
 20
2824.506657257219
 30
0.0
  0
POINT
  5
881
330
7C7
100
AcDbEntity
  8
DEFPOINTS
 62
     0
100
AcDbPoint
 10
4995.519761809159
 20
3173.161629932609
 30
0.0
  0
ENDBLK
  5
7D2
330
7C7
100
AcDbEntity
  8
0
100
AcDbBlockEnd
  0
BLOCK
  5
81C
330
810
100
AcDbEntity
  8
0
100
AcDbBlockBegin
  2
*D74
 70
     1
 10
0.0
 20
0.0
 30
0.0
  3
*D74
  1

  0
LINE
  5
896
330
810
100
AcDbEntity
  8
AM_5
 62
     2
370
    -2
100
AcDbLine
 10
4835.519761809139
 20
2824.506657257219
 30
0.0
 11
4562.621872740874
 21
2824.506657257219
 31
0.0
  0
LINE
  5
897
330
810
100
AcDbEntity
  8
AM_5
 62
     2
370
    -2
100
AcDbLine
 10
4785.519761809157
 20
2819.553833392006
 30
0.0
 11
4562.621872740874
 21
2819.553833392006
 31
0.0
  0
LINE
  5
898
330
810
100
AcDbEntity
  8
AM_5
 62
     2
370
    -2
100
AcDbLine
 10
4572.621872740874
 20
2844.506657257219
 30
0.0
 11
4572.621872740874
 21
2864.506657257219
 31
0.0
  0
LINE
  5
899
330
810
100
AcDbEntity
  8
AM_5
 62
     2
370
    -2
100
AcDbLine
 10
4572.621872740874
 20
2799.553833392006
 30
0.0
 11
4572.621872740874
 21
2705.416777554443
 31
0.0
  0
LINE
  5
89A
330
810
100
AcDbEntity
  8
AM_5
 62
     2
370
    -2
100
AcDbLine
 10
4572.621872740874
 20
2824.506657257219
 30
0.0
 11
4572.621872740874
 21
2819.553833392006
 31
0.0
  0
INSERT
  5
89B
330
810
100
AcDbEntity
  8
AM_5
 62
     2
370
    -2
100
AcDbBlockReference
  2
_Open30
 10
4572.621872740874
 20
2824.506657257219
 30
0.0
 41
20.0
 42
20.0
 43
20.0
 50
270.0
  0
INSERT
  5
89C
330
810
100
AcDbEntity
  8
AM_5
 62
     2
370
    -2
100
AcDbBlockReference
  2
_Open30
 10
4572.621872740874
 20
2819.553833392006
 30
0.0
 41
20.0
 42
20.0
 43
20.0
 50
90.0
  0
MTEXT
  5
89D
330
810
100
AcDbEntity
  8
AM_5
 62
     0
100
AcDbMText
 10
4550.121872740873
 20
2742.485305473225
 30
0.0
 40
35.0
 41
0.0
 71
     5
 72
     1
  1
\A1;0.5
  7
スタイル１
 11
0.0000000000000001
 21
1.0
 31
0.0
 73
     1
 44
1.0
  0
POINT
  5
89E
330
810
100
AcDbEntity
  8
DEFPOINTS
 62
     0
100
AcDbPoint
 10
4845.519761809139
 20
2824.506657257219
 30
0.0
  0
POINT
  5
89F
330
810
100
AcDbEntity
  8
DEFPOINTS
 62
     0
100
AcDbPoint
 10
4795.519761809157
 20
2819.553833392006
 30
0.0
  0
POINT
  5
8A0
330
810
100
AcDbEntity
  8
DEFPOINTS
 62
     0
100
AcDbPoint
 10
4572.621872740874
 20
2819.553833392006
 30
0.0
  0
ENDBLK
  5
81D
330
810
100
AcDbEntity
  8
0
100
AcDbBlockEnd
  0
BLOCK
  5
8C9
330
8BF
100
AcDbEntity
  8
0
100
AcDbBlockBegin
  2
*D75
 70
     1
 10
0.0
 20
0.0
 30
0.0
  3
*D75
  1

  0
LINE
  5
8D4
330
8BF
100
AcDbEntity
  8
AM_5
 62
     2
370
    -2
100
AcDbLine
 10
5455.641319363134
 20
1481.15143219817
 30
0.0
 11
5621.313859358235
 21
1481.15143219817
 31
0.0
  0
LINE
  5
8D5
330
8BF
100
AcDbEntity
  8
AM_5
 62
     2
370
    -2
100
AcDbLine
 10
5455.641319363134
 20
1331.15143219817
 30
0.0
 11
5621.313859358235
 21
1331.15143219817
 31
0.0
  0
LINE
  5
8D6
330
8BF
100
AcDbEntity
  8
AM_5
 62
     2
370
    -2
100
AcDbLine
 10
5611.313859358234
 20
1461.15143219817
 30
0.0
 11
5611.313859358234
 21
1351.15143219817
 31
0.0
  0
INSERT
  5
8D7
330
8BF
100
AcDbEntity
  8
AM_5
 62
     2
370
    -2
100
AcDbBlockReference
  2
_Open30
 10
5611.313859358234
 20
1481.15143219817
 30
0.0
 41
20.0
 42
20.0
 43
20.0
 50
90.0
  0
INSERT
  5
8D8
330
8BF
100
AcDbEntity
  8
AM_5
 62
     2
370
    -2
100
AcDbBlockReference
  2
_Open30
 10
5611.313859358234
 20
1331.15143219817
 30
0.0
 41
20.0
 42
20.0
 43
20.0
 50
270.0
  0
MTEXT
  5
8D9
330
8BF
100
AcDbEntity
  8
AM_5
 62
     0
100
AcDbMText
 10
5588.813859358235
 20
1406.151432198171
 30
0.0
 40
35.0
 41
0.0
 71
     5
 72
     1
  1
\A1;30
  7
スタイル１
 11
0.0000000000000001
 21
1.0
 31
0.0
 73
     1
 44
1.0
  0
POINT
  5
8DA
330
8BF
100
AcDbEntity
  8
DEFPOINTS
 62
     0
100
AcDbPoint
 10
5445.641319363133
 20
1481.15143219817
 30
0.0
  0
POINT
  5
8DB
330
8BF
100
AcDbEntity
  8
DEFPOINTS
 62
     0
100
AcDbPoint
 10
5445.641319363133
 20
1331.15143219817
 30
0.0
  0
POINT
  5
8DC
330
8BF
100
AcDbEntity
  8
DEFPOINTS
 62
     0
100
AcDbPoint
 10
5611.313859358234
 20
1331.15143219817
 30
0.0
  0
ENDBLK
  5
8CA
330
8BF
100
AcDbEntity
  8
0
100
AcDbBlockEnd
  0
BLOCK
  5
8F5
330
8EB
100
AcDbEntity
  8
0
100
AcDbBlockBegin
  2
*D76
 70
     1
 10
0.0
 20
0.0
 30
0.0
  3
*D76
  1

  0
LINE
  5
8EC
330
8EB
100
AcDbEntity
  8
AM_5
 62
     2
370
    -2
100
AcDbLine
 10
7429.472017177987
 20
1481.15143219817
 30
0.0
 11
7654.581080980847
 21
1481.15143219817
 31
0.0
  0
LINE
  5
8ED
330
8EB
100
AcDbEntity
  8
AM_5
 62
     2
370
    -2
100
AcDbLine
 10
7429.472017177987
 20
1331.15143219817
 30
0.0
 11
7654.581080980847
 21
1331.15143219817
 31
0.0
  0
LINE
  5
8EE
330
8EB
100
AcDbEntity
  8
AM_5
 62
     2
370
    -2
100
AcDbLine
 10
7644.581080980848
 20
1461.15143219817
 30
0.0
 11
7644.581080980848
 21
1351.15143219817
 31
0.0
  0
INSERT
  5
8EF
330
8EB
100
AcDbEntity
  8
AM_5
 62
     2
370
    -2
100
AcDbBlockReference
  2
_Open30
 10
7644.581080980848
 20
1481.15143219817
 30
0.0
 41
20.0
 42
20.0
 43
20.0
 50
90.0
  0
INSERT
  5
8F0
330
8EB
100
AcDbEntity
  8
AM_5
 62
     2
370
    -2
100
AcDbBlockReference
  2
_Open30
 10
7644.581080980848
 20
1331.15143219817
 30
0.0
 41
20.0
 42
20.0
 43
20.0
 50
270.0
  0
MTEXT
  5
8F1
330
8EB
100
AcDbEntity
  8
AM_5
 62
     0
100
AcDbMText
 10
7622.081080980847
 20
1406.151432198171
 30
0.0
 40
35.0
 41
0.0
 71
     5
 72
     1
  1
\A1;30
  7
スタイル１
 11
0.0000000000000001
 21
1.0
 31
0.0
 73
     1
 44
1.0
  0
POINT
  5
8F2
330
8EB
100
AcDbEntity
  8
DEFPOINTS
 62
     0
100
AcDbPoint
 10
7419.472017177986
 20
1481.15143219817
 30
0.0
  0
POINT
  5
8F3
330
8EB
100
AcDbEntity
  8
DEFPOINTS
 62
     0
100
AcDbPoint
 10
7419.472017177986
 20
1331.15143219817
 30
0.0
  0
POINT
  5
8F4
330
8EB
100
AcDbEntity
  8
DEFPOINTS
 62
     0
100
AcDbPoint
 10
7644.581080980848
 20
1331.15143219817
 30
0.0
  0
ENDBLK
  5
8F6
330
8EB
100
AcDbEntity
  8
0
100
AcDbBlockEnd
  0
BLOCK
  5
91E
330
915
100
AcDbEntity
  8
0
100
AcDbBlockBegin
  2
*D77
 70
     1
 10
0.0
 20
0.0
 30
0.0
  3
*D77
  1

  0
LINE
  5
916
330
915
100
AcDbEntity
  8
AM_5
 62
     2
370
    -2
100
AcDbLine
 10
1536.406577781054
 20
5279.200776057635
 30
0.0
 11
1518.919201818175
 21
5269.495536136183
 31
0.0
  0
LINE
  5
917
330
915
100
AcDbEntity
  8
AM_5
 62
     2
370
    -2
100
AcDbLine
 10
1866.043614681323
 20
5462.144548576978
 30
0.0
 11
1883.530990644202
 21
5471.849788498428
 31
0.0
  0
LINE
  5
918
330
915
100
AcDbEntity
  8
AM_5
 62
     2
370
    -2
100
AcDbLine
 10
1553.893953743933
 20
5288.906015979084
 30
0.0
 11
1848.556238718444
 21
5452.439308655526
 31
0.0
  0
INSERT
  5
919
330
915
100
AcDbEntity
  8
AM_5
 62
     2
370
    -2
100
AcDbBlockReference
  2
_Open30
 10
1553.893953743933
 20
5288.906015979084
 30
0.0
 41
20.0
 42
20.0
 43
20.0
 50
29.0296391027596
  0
INSERT
  5
91A
330
915
100
AcDbEntity
  8
AM_5
 62
     2
370
    -2
100
AcDbBlockReference
  2
_Open30
 10
1848.556238718444
 20
5452.439308655526
 30
0.0
 41
20.0
 42
20.0
 43
20.0
 50
209.0296391027596
  0
MTEXT
  5
91B
330
915
100
AcDbEntity
  8
AM_5
 62
     0
100
AcDbMText
 10
1752.863776360699
 20
5425.165825365494
 30
0.0
 40
35.0
 41
0.0
 71
     5
 72
     1
  1
\A1;337 diam.
  7
スタイル１
 11
0.8743687981439535
 21
0.4852619960725321
 31
0.0
 73
     1
 44
1.0
  0
POINT
  5
91C
330
915
100
AcDbEntity
  8
DEFPOINTS
 62
     0
100
AcDbPoint
 10
1848.556238718444
 20
5452.439308655526
 30
0.0
  0
POINT
  5
91D
330
915
100
AcDbEntity
  8
DEFPOINTS
 62
     0
100
AcDbPoint
 10
1553.893953743933
 20
5288.906015979084
 30
0.0
  0
ENDBLK
  5
91F
330
915
100
AcDbEntity
  8
0
100
AcDbBlockEnd
  0
BLOCK
  5
927
330
920
100
AcDbEntity
  8
0
100
AcDbBlockBegin
  2
*D78
 70
     1
 10
0.0
 20
0.0
 30
0.0
  3
*D78
  1

  0
LINE
  5
921
330
920
100
AcDbEntity
  8
AM_5
 62
     2
370
    -2
100
AcDbLine
 10
1542.900375259147
 20
4831.823013396693
 30
0.0
 11
1859.549817203244
 21
5087.522311237915
 31
0.0
  0
INSERT
  5
922
330
920
100
AcDbEntity
  8
AM_5
 62
     2
370
    -2
100
AcDbBlockReference
  2
_Open30
 10
1527.340206121845
 20
4819.257937335699
 30
0.0
 41
20.0
 42
20.0
 43
20.0
 50
218.9214084716135
  0
INSERT
  5
923
330
920
100
AcDbEntity
  8
AM_5
 62
     2
370
    -2
100
AcDbBlockReference
  2
_Open30
 10
1875.109986340545
 20
5100.087387298909
 30
0.0
 41
20.0
 42
20.0
 43
20.0
 50
38.92140847161355
  0
MTEXT
  5
924
330
920
100
AcDbEntity
  8
AM_5
 62
     0
100
AcDbMText
 10
1687.033576314591
 20
4977.24696502314
 30
0.0
 40
35.0
 41
0.0
 71
     5
 72
     1
  1
\A1;447 diam.
  7
スタイル１
 11
0.7780084568650977
 21
0.6282538030496827
 31
0.0
 73
     1
 44
1.0
  0
POINT
  5
925
330
920
100
AcDbEntity
  8
DEFPOINTS
 62
     0
100
AcDbPoint
 10
1875.109986340545
 20
5100.087387298909
 30
0.0
  0
POINT
  5
926
330
920
100
AcDbEntity
  8
DEFPOINTS
 62
     0
100
AcDbPoint
 10
1527.340206121845
 20
4819.257937335699
 30
0.0
  0
ENDBLK
  5
928
330
920
100
AcDbEntity
  8
0
100
AcDbBlockEnd
  0
BLOCK
  5
932
330
929
100
AcDbEntity
  8
0
100
AcDbBlockBegin
  2
*D79
 70
     1
 10
0.0
 20
0.0
 30
0.0
  3
*D79
  1

  0
LINE
  5
92A
330
929
100
AcDbEntity
  8
AM_5
 62
     2
370
    -2
100
AcDbLine
 10
1536.40657778105
 20
4457.200776057639
 30
0.0
 11
1518.91920181817
 21
4447.49553613619
 31
0.0
  0
LINE
  5
92B
330
929
100
AcDbEntity
  8
AM_5
 62
     2
370
    -2
100
AcDbLine
 10
1866.04361468133
 20
4640.144548576972
 30
0.0
 11
1883.53099064421
 21
4649.849788498422
 31
0.0
  0
LINE
  5
92C
330
929
100
AcDbEntity
  8
AM_5
 62
     2
370
    -2
100
AcDbLine
 10
1553.89395374393
 20
4466.906015979089
 30
0.0
 11
1848.556238718451
 21
4630.439308655522
 31
0.0
  0
INSERT
  5
92D
330
929
100
AcDbEntity
  8
AM_5
 62
     2
370
    -2
100
AcDbBlockReference
  2
_Open30
 10
1553.89395374393
 20
4466.906015979089
 30
0.0
 41
20.0
 42
20.0
 43
20.0
 50
29.02963910275736
  0
INSERT
  5
92E
330
929
100
AcDbEntity
  8
AM_5
 62
     2
370
    -2
100
AcDbBlockReference
  2
_Open30
 10
1848.556238718451
 20
4630.439308655522
 30
0.0
 41
20.0
 42
20.0
 43
20.0
 50
209.0296391027573
  0
MTEXT
  5
92F
330
929
100
AcDbEntity
  8
AM_5
 62
     0
100
AcDbMText
 10
1752.863776360706
 20
4603.165825365493
 30
0.0
 40
35.0
 41
0.0
 71
     5
 72
     1
  1
\A1;337 diam.
  7
スタイル１
 11
0.8743687981439725
 21
0.485261996072498
 31
0.0
 73
     1
 44
1.0
  0
POINT
  5
930
330
929
100
AcDbEntity
  8
DEFPOINTS
 62
     0
100
AcDbPoint
 10
1848.556238718451
 20
4630.439308655522
 30
0.0
  0
POINT
  5
931
330
929
100
AcDbEntity
  8
DEFPOINTS
 62
     0
100
AcDbPoint
 10
1553.89395374393
 20
4466.906015979089
 30
0.0
  0
ENDBLK
  5
933
330
929
100
AcDbEntity
  8
0
100
AcDbBlockEnd
  0
BLOCK
  5
93D
330
934
100
AcDbEntity
  8
0
100
AcDbBlockBegin
  2
*D80
 70
     1
 10
0.0
 20
0.0
 30
0.0
  3
*D80
  1

  0
LINE
  5
935
330
934
100
AcDbEntity
  8
AM_5
 62
     2
370
    -2
100
AcDbLine
 10
3491.436764777618
 20
1995.685730354356
 30
0.0
 11
3476.434228091373
 21
1982.459850686905
 31
0.0
  0
LINE
  5
936
330
934
100
AcDbEntity
  8
AM_5
 62
     2
370
    -2
100
AcDbLine
 10
3628.860000823621
 20
2116.834788108202
 30
0.0
 11
3824.483179061141
 21
2289.291531233904
 31
0.0
  0
LINE
  5
937
330
934
100
AcDbEntity
  8
AM_5
 62
     2
370
    -2
100
AcDbLine
 10
3506.439301463862
 20
2008.911610021806
 30
0.0
 11
3613.857464137376
 21
2103.608908440752
 31
0.0
  0
INSERT
  5
938
330
934
100
AcDbEntity
  8
AM_5
 62
     2
370
    -2
100
AcDbBlockReference
  2
_Open30
 10
3506.439301463862
 20
2008.911610021806
 30
0.0
 41
20.0
 42
20.0
 43
20.0
 50
41.39863413619058
  0
INSERT
  5
939
330
934
100
AcDbEntity
  8
AM_5
 62
     2
370
    -2
100
AcDbBlockReference
  2
_Open30
 10
3613.857464137376
 20
2103.608908440752
 30
0.0
 41
20.0
 42
20.0
 43
20.0
 50
221.3986341361905
  0
MTEXT
  5
93A
330
934
100
AcDbEntity
  8
AM_5
 62
     0
100
AcDbMText
 10
3719.234999270236
 20
2226.620588909294
 30
0.0
 40
35.0
 41
0.0
 71
     5
 72
     1
  1
\A1;143.2 diam.
  7
スタイル１
 11
0.7501268343122416
 21
0.6612939833725201
 31
0.0
 73
     1
 44
1.0
  0
POINT
  5
93B
330
934
100
AcDbEntity
  8
DEFPOINTS
 62
     0
100
AcDbPoint
 10
3613.857464137376
 20
2103.608908440752
 30
0.0
  0
POINT
  5
93C
330
934
100
AcDbEntity
  8
DEFPOINTS
 62
     0
100
AcDbPoint
 10
3506.439301463862
 20
2008.911610021806
 30
0.0
  0
ENDBLK
  5
93E
330
934
100
AcDbEntity
  8
0
100
AcDbBlockEnd
  0
BLOCK
  5
948
330
93F
100
AcDbEntity
  8
0
100
AcDbBlockBegin
  2
*D81
 70
     1
 10
0.0
 20
0.0
 30
0.0
  3
*D81
  1

  0
LINE
  5
940
330
93F
100
AcDbEntity
  8
AM_5
 62
     2
370
    -2
100
AcDbLine
 10
3491.436764777616
 20
2595.685730354357
 30
0.0
 11
3476.43422809137
 21
2582.459850686907
 31
0.0
  0
LINE
  5
941
330
93F
100
AcDbEntity
  8
AM_5
 62
     2
370
    -2
100
AcDbLine
 10
3628.86000082362
 20
2716.834788108203
 30
0.0
 11
3824.483179061141
 21
2889.291531233903
 31
0.0
  0
LINE
  5
942
330
93F
100
AcDbEntity
  8
AM_5
 62
     2
370
    -2
100
AcDbLine
 10
3506.439301463861
 20
2608.911610021808
 30
0.0
 11
3613.857464137375
 21
2703.608908440752
 31
0.0
  0
INSERT
  5
943
330
93F
100
AcDbEntity
  8
AM_5
 62
     2
370
    -2
100
AcDbBlockReference
  2
_Open30
 10
3506.439301463861
 20
2608.911610021808
 30
0.0
 41
20.0
 42
20.0
 43
20.0
 50
41.39863413619018
  0
INSERT
  5
944
330
93F
100
AcDbEntity
  8
AM_5
 62
     2
370
    -2
100
AcDbBlockReference
  2
_Open30
 10
3613.857464137375
 20
2703.608908440752
 30
0.0
 41
20.0
 42
20.0
 43
20.0
 50
221.3986341361901
  0
MTEXT
  5
945
330
93F
100
AcDbEntity
  8
AM_5
 62
     0
100
AcDbMText
 10
3719.234999270236
 20
2826.620588909293
 30
0.0
 40
35.0
 41
0.0
 71
     5
 72
     1
  1
\A1;143.2 diam.
  7
スタイル１
 11
0.7501268343122466
 21
0.6612939833725145
 31
0.0
 73
     1
 44
1.0
  0
POINT
  5
946
330
93F
100
AcDbEntity
  8
DEFPOINTS
 62
     0
100
AcDbPoint
 10
3613.857464137375
 20
2703.608908440752
 30
0.0
  0
POINT
  5
947
330
93F
100
AcDbEntity
  8
DEFPOINTS
 62
     0
100
AcDbPoint
 10
3506.439301463861
 20
2608.911610021808
 30
0.0
  0
ENDBLK
  5
949
330
93F
100
AcDbEntity
  8
0
100
AcDbBlockEnd
  0
ENDSEC
  0
SECTION
  2
ENTITIES
  0
LEADER
  5
2D
330
2
100
AcDbEntity
  8
AM_5
100
AcDbLeader
  3
スタイル2
 73
     0
 74
     0
 75
     1
 40
41.21827411167512
 41
125.2538071065989
 76
     3
 10
1760.401247213531
 20
3383.047438974971
 30
0.0
 10
1803.044788184919
 20
3561.513982792436
 30
0.0
 10
1823.044788184919
 20
3561.513982792436
 30
0.0
340
2E
1001
ACAD
1000
DSTYLE
1002
{
1070
   147
1040
5.0
1070
    77
1070
     1
1070
   271
1070
     1
1070
   272
1070
     1
1002
}
  0
MTEXT
  5
2E
102
{ACAD_REACTORS
330
2D
102
}
330
2
100
AcDbEntity
  8
AM_5
100
AcDbMText
 10
1828.044788184919
 20
3566.513982792435
 30
0.0
 40
35.0
 41
0.0
 71
     7
 72
     1
  1
Outer Wall-1
  7
スタイル１
 73
     1
 44
1.0
  0
LEADER
  5
2F
330
2
100
AcDbEntity
  8
AM_5
100
AcDbLeader
  3
スタイル2
 73
     0
 74
     0
 75
     1
 40
42.28426395939086
 41
179.7969543147207
 76
     3
 10
1332.917103637475
 20
1338.520796363792
 30
0.0
 10
1744.94516193191
 20
1565.183041291107
 30
0.0
 10
1764.945161931909
 20
1565.183041291107
 30
0.0
340
30
1001
ACAD
1000
DSTYLE
1002
{
1070
   147
1040
5.0
1070
    77
1070
     1
1070
   271
1070
     1
1070
   272
1070
     1
1002
}
  0
MTEXT
  5
30
102
{ACAD_REACTORS
330
2F
102
}
330
2
100
AcDbEntity
  8
AM_5
100
AcDbMText
 10
1769.945161931909
 20
1570.183041291107
 30
0.0
 40
35.0
 41
0.0
 71
     7
 72
     1
  1
2-34 diam. Through Hole
  7
スタイル１
 73
     1
 44
1.0
  0
LINE
  5
31
330
2
100
AcDbEntity
  8
AM_0
100
AcDbLine
 10
2001.225096231191
 20
5594.672662317305
 30
0.0
 11
916.2250962311899
 21
5594.672662317305
 31
0.0
  0
DIMENSION
  5
33
330
2
100
AcDbEntity
  8
AM_5
100
AcDbDimension
  2
*D12
 10
2228.988818480587
 20
4548.672662317304
 30
0.0
 11
2206.488818480587
 21
4754.172662317305
 31
0.0
 71
     5
 42
411.0000000000009
  3
スタイル2
100
AcDbAlignedDimension
 13
2051.225096231191
 23
4959.672662317306
 33
0.0
 14
1892.225096231191
 24
4548.672662317305
 34
0.0
 50
90.0
100
AcDbRotatedDimension
1001
ACAD
1000
DSTYLE
1002
{
1070
   279
1070
     1
1002
}
  0
LINE
  5
41
330
2
100
AcDbEntity
  8
AM_0
100
AcDbLine
 10
2001.225096231191
 20
4324.672662317305
 30
0.0
 11
916.2250962311899
 21
4324.672662317305
 31
0.0
  0
LINE
  5
42
330
2
100
AcDbEntity
  8
AM_7
100
AcDbLine
 10
866.2250962311899
 20
4959.672662317306
 30
0.0
 11
2051.225096231191
 21
4959.672662317306
 31
0.0
  0
CIRCLE
  5
45
330
2
100
AcDbEntity
  8
AM_0
100
AcDbCircle
 10
1701.225096231191
 20
4959.672662317306
 30
0.0
 40
223.4999999999999
  0
CIRCLE
  5
46
330
2
100
AcDbEntity
  8
AM_5
100
AcDbCircle
 10
1902.414653499538
 20
3513.740368407736
 30
0.0
 40
40.0
  0
MTEXT
  5
47
330
2
100
AcDbEntity
  8
AM_5
100
AcDbMText
 10
1903.192981708583
 20
3517.494876777913
 30
0.0
 40
38.0
 41
0.0
 71
     5
 72
     1
  1
1-1
  7
スタイル１
 73
     1
 44
1.0
  0
ARC
  5
4C
330
2
100
AcDbEntity
  8
AM_5
 62
     2
100
AcDbCircle
 10
2116.225096231139
 20
2236.925420019872
 30
0.0
 40
1600.0
100
AcDbArc
 50
94.12168814493846
 51
133.6942449915498
  0
ARC
  5
4D
330
2
100
AcDbEntity
  8
AM_5
 62
     2
100
AcDbCircle
 10
2116.225096231195
 20
2237.015420019802
 30
0.0
 40
1500.0
100
AcDbArc
 50
94.39699104725496
 51
125.3718616492458
  0
DIMENSION
  5
4E
330
2
100
AcDbEntity
  8
AM_5
100
AcDbDimension
  2
*D13
 10
2228.988818480587
 20
4959.672662317306
 30
0.0
 11
2206.488818480587
 21
5165.172662317305
 31
0.0
 71
     5
 42
410.999999999999
  3
スタイル2
100
AcDbAlignedDimension
 13
1892.225096231191
 23
5370.672662317305
 33
0.0
 14
2051.225096231191
 24
4959.672662317306
 34
0.0
 50
90.0
100
AcDbRotatedDimension
1001
ACAD
1000
DSTYLE
1002
{
1070
   279
1070
     1
1002
}
  0
MTEXT
  5
5B
330
2
100
AcDbEntity
  8
AM_5
100
AcDbMText
 10
1597.598253503407
 20
3058.458643893406
 30
0.0
 40
35.0
 41
0.0
 71
     1
 72
     1
  1
(For View Port)
  7
スタイル１
 73
     1
 44
1.0
  0
DIMENSION
  5
5C
330
2
100
AcDbEntity
  8
AM_5
100
AcDbDimension
  2
*D15
 10
2116.225096231141
 20
2237.015420019875
 30
0.0
 11
1339.360757380505
 21
2691.123208147862
 31
0.0
 70
   132
 71
     5
 42
1192.00000000001
  3
スタイル2$4
100
AcDbRadialDimension
 15
1087.141234472319
 25
2838.5554481706
 35
0.0
 40
0.0
1001
ACAD
1000
DSTYLE
1002
{
1070
   271
1070
     1
1070
   272
1070
     1
1002
}
  0
DIMENSION
  5
66
330
2
100
AcDbEntity
  8
AM_5
100
AcDbDimension
  2
*D17
 10
2116.225096231139
 20
2237.015420019874
 30
0.0
 11
1300.52233075643
 21
2621.249772240108
 31
0.0
 70
   132
 71
     5
 42
1200.000000000002
  3
スタイル2$4
100
AcDbRadialDimension
 15
1030.634611937717
 25
2748.379576381638
 35
0.0
 40
0.0
1001
ACAD
1000
DSTYLE
1002
{
1070
   271
1070
     1
1070
   272
1070
     1
1002
}
  0
MTEXT
  5
6F
330
2
100
AcDbEntity
  8
AM_5
100
AcDbMText
 10
1730.119459505711
 20
1553.422907218875
 30
0.0
 40
35.0
 41
0.0
 71
     1
 72
     1
  1
(For View Port)
  7
スタイル１
 73
     1
 44
1.0
  0
ARC
  5
70
330
2
100
AcDbEntity
  8
AM_0
100
AcDbCircle
 10
2116.225096231139
 20
2237.015420019873
 30
0.0
 40
1192.0
100
AcDbArc
 50
232.74459130851
 51
264.4636919947767
  0
LINE
  5
71
330
2
100
AcDbEntity
  8
AM_7
 48
0.2
100
AcDbLine
 10
1058.233596167274
 20
1023.444661557922
 30
0.0
 11
2116.225096231539
 21
2237.015420020273
 31
0.0
  0
MTEXT
  5
72
330
2
100
AcDbEntity
  8
AM_6
100
AcDbMText
 10
2328.147230786704
 20
318.5612982766942
 30
0.0
 40
45.0
 41
0.0
 71
     5
 72
     5
  1
Outer Wall-1, Outer Wall-2 S=1/10
  7
スタイル１
 73
     1
 44
1.0
  0
LINE
  5
74
330
2
100
AcDbEntity
  8
AM_6
100
AcDbLine
 10
1690.8979455354
 20
284.8464382833844
 30
0.0
 11
2821.012880468293
 21
284.8464382833844
 31
0.0
  0
LINE
  5
75
330
2
100
AcDbEntity
  8
AM_7
 48
0.2
100
AcDbLine
 10
1298.308429564285
 20
967.7194236539335
 30
0.0
 11
2116.22509623154
 21
2237.015420020342
 31
0.0
  0
ARC
  5
76
330
2
100
AcDbEntity
  8
AM_5
 62
     2
100
AcDbCircle
 10
2116.225096232276
 20
2237.015420018344
 30
0.0
 40
1600.0
100
AcDbArc
 50
228.9180681644451
 51
265.8783118550116
  0
ARC
  5
77
330
2
100
AcDbEntity
  8
AM_5
 62
     2
100
AcDbCircle
 10
2116.225096232276
 20
2237.015420018344
 30
0.0
 40
1500.0
100
AcDbArc
 50
237.202831704116
 51
265.6030089526942
  0
DIMENSION
  5
78
330
2
100
AcDbEntity
  8
AM_5
100
AcDbDimension
  2
*D14
 10
2001.22509623154
 20
946.1903144069935
 30
0.0
 11
1733.725096231567
 21
968.6903144069935
 31
0.0
 71
     5
 42
534.9999999999463
  3
スタイル2
100
AcDbAlignedDimension
 13
1466.225096231593
 23
971.4275623845596
 33
0.0
 14
2001.22509623154
 24
1042.538547075468
 34
0.0
100
AcDbRotatedDimension
1001
ACAD
1000
DSTYLE
1002
{
1070
   271
1070
     1
1070
   272
1070
     1
1002
}
  0
LINE
  5
85
330
2
100
AcDbEntity
  8
AM_5
100
AcDbLine
 10
655.5196152212102
 20
882.8464176641137
 30
0.0
 11
2297.903154146961
 21
882.8464176641137
 31
0.0
  0
LINE
  5
86
330
2
100
AcDbEntity
  8
AM_7
100
AcDbLine
 10
216.2250984811398
 20
2237.015420019873
 30
0.0
 11
2216.225096231192
 21
2237.015420019873
 31
0.0
  0
LINE
  5
87
330
2
100
AcDbEntity
  8
AM_5
 62
     2
100
AcDbLine
 10
1110.019006991437
 20
3493.766422675805
 30
0.0
 11
2116.225096231191
 21
2237.015420019801
 31
0.0
  0
LINE
  5
88
330
2
100
AcDbEntity
  8
AM_5
 62
     2
100
AcDbLine
 10
1559.462634130842
 20
3747.592676827262
 30
0.0
 11
2116.22509623154
 21
2237.015420020342
 31
0.0
  0
ARC
  5
89
330
2
100
AcDbEntity
  8
AM_5
 62
     2
100
AcDbCircle
 10
2116.225096231139
 20
2236.925420019872
 30
0.0
 40
1800.0
100
AcDbArc
 50
93.66305855186315
 51
266.3369414481246
  0
ARC
  5
8A
330
2
100
AcDbEntity
  8
AM_5
 62
     2
100
AcDbCircle
 10
2116.225096231241
 20
2237.015420019802
 30
0.0
 40
1700.0
100
AcDbArc
 50
93.87885316436332
 51
266.1211468356356
  0
LINE
  5
8B
330
2
100
AcDbEntity
  8
AM_7
 48
0.2
100
AcDbLine
 10
1242.115106889088
 20
3468.287821453518
 30
0.0
 11
2116.225096231241
 21
2237.015420019802
 31
0.0
  0
ARC
  5
8C
330
2
100
AcDbEntity
  8
AM_0
100
AcDbCircle
 10
2116.225096231139
 20
2237.015420019873
 30
0.0
 40
1200.0
100
AcDbArc
 50
95.49928514237082
 51
264.5007148576291
  0
ARC
  5
8D
330
2
100
AcDbEntity
  8
AM_0
100
AcDbCircle
 10
2116.225096231139
 20
2237.015420019873
 30
0.0
 40
1192.0
100
AcDbArc
 50
95.53630800522318
 51
232.74459130851
  0
LWPOLYLINE
  5
8E
330
2
100
AcDbEntity
  8
図面範囲
 62
     5
100
AcDbPolyline
 90
        4
 70
     1
 43
0.0
 10
0.0
 20
5715.399999999999
 10
8245.600000000001
 20
5715.399999999999
 10
8245.600000000001
 20
-0.0000000000011369
 10
0.0
 20
0.0
  0
LINE
  5
90
330
2
100
AcDbEntity
  8
A1枠
100
AcDbLine
 10
150.0
 20
159.9999999999988
 30
0.0
 11
8050.000000000002
 21
159.9999999999988
 31
0.0
  0
LINE
  5
92
330
2
100
AcDbEntity
  8
A1枠
100
AcDbLine
 10
8050.000000000002
 20
5690.0
 30
0.0
 11
150.0
 21
5690.0
 31
0.0
  0
LEADER
  5
93
330
2
100
AcDbEntity
  8
AM_5
100
AcDbLeader
  3
スタイル2
 73
     0
 74
     0
 75
     1
 40
42.28426395939086
 41
179.7969543147207
 76
     3
 10
1426.199197359765
 20
3208.986746184773
 30
0.0
 10
1612.423955929605
 20
3070.218777965638
 30
0.0
 10
1632.423955929605
 20
3070.218777965638
 30
0.0
340
94
1001
ACAD
1000
DSTYLE
1002
{
1070
   147
1040
5.0
1070
    77
1070
     1
1070
   271
1070
     1
1070
   272
1070
     1
1002
}
  0
MTEXT
  5
94
102
{ACAD_REACTORS
330
93
102
}
330
2
100
AcDbEntity
  8
AM_5
100
AcDbMText
 10
1637.423955929605
 20
3075.218777965638
 30
0.0
 40
35.0
 41
0.0
 71
     7
 72
     1
  1
2-34 diam. Through Hole
  7
スタイル１
 73
     1
 44
1.0
  0
LINE
  5
95
330
2
100
AcDbEntity
  8
A1枠
100
AcDbLine
 10
150.0
 20
5690.0
 30
0.0
 11
150.0
 21
159.9999999999988
 31
0.0
  0
MTEXT
  5
96
330
2
100
AcDbEntity
  8
AM_5
100
AcDbMText
 10
1208.691171912031
 20
3097.015004236878
 30
0.0
 40
45.0
 41
0.0
 71
     9
 72
     1
  1
"b"
  7
スタイル１
 73
     1
 44
1.0
  0
ARC
  5
97
330
2
100
AcDbEntity
  8
AM_5
100
AcDbCircle
 10
1287.219632547947
 20
3104.627050407236
 30
0.0
 40
124.9385910730928
100
AcDbArc
 50
192.9436607035829
 51
155.1039716971525
  0
LINE
  5
98
330
2
100
AcDbEntity
  8
A1枠
 62
     9
100
AcDbLine
 10
150.0000000000363
 20
310.0
 30
0.0
 11
1350.000000000036
 21
309.9999999999897
 31
0.0
  0
LINE
  5
99
330
2
100
AcDbEntity
  8
A1枠
 62
     9
100
AcDbLine
 10
1350.000000000036
 20
239.9999999999897
 30
0.0
 11
150.0000000000363
 21
239.9999999999897
 31
0.0
  0
MTEXT
  5
9A
330
2
100
AcDbEntity
  8
A1枠
  6
Continuous
 62
     9
100
AcDbMText
 10
284.00690525159
 20
216.3935643086563
 30
0.0
 40
25.0
 41
0.0
 71
     1
 72
     5
  1
Date
  7
TITLE
 73
     1
 44
1.0
  0
MTEXT
  5
9C
330
2
100
AcDbEntity
  8
A1枠
  6
Continuous
 62
     9
100
AcDbMText
 10
168.2287882575328
 20
216.3935643086574
 30
0.0
 40
25.0
 41
0.0
 71
     1
 72
     5
  1
Mark
  7
TITLE
 73
     1
 44
1.0
  0
REGION
  5
9D
330
2
100
AcDbEntity
  8
A1枠
 62
     9
100
AcDbModelerGeometry
 70
     1
  1
koo mn n o          
  1
h J1410(1 nl ^ \VL kqoqm QK mk K*: R>- ng njemneng mool 
  1
rn fqfffffffffffffffj:rooh n:rono 
  1
=0;& {rn {n {rn {rn |
  1
3*2/ {rn {rn {m {o |
  1
,7:33 {rn {rn {rn {l {rn {n |
  1
9><: {rn {rn {k {m {rn {j -:):-,:; ;0*=3: 0*+ |
  1
300/ {rn {rn {i {l |
  1
/3>1:r,*-9><: {rn mooqoooooooooomfn miiqllllllllllllmi o o o rn rno o o 90-(>-;@) V V V V |
  1
<0:;8: {rn {h {g {rn {f 90-(>-; {k {rn |
  1
<0:;8: {rn {g {i {rn {no 90-(>-; {k {rn |
  1
<0:;8: {rn {i {h {rn {nn 90-(>-; {k {rn |
  1
:;8: {rn {nm {nl {i {nk 90-(>-; |
  1
:;8: {rn {nl {nj {h {ni 90-(>-; |
  1
:;8: {rn {nj {nm {g {nh 90-(>-; |
  1
):-+:' {rn {f {ng |
  1
):-+:' {rn {f {nf |
  1
,+->687+r<*-): {rn nifqfhhhgioomngjgf mkgqffffffffffffhh o no o o V V |
  1
):-+:' {rn {no {mo |
  1
,+->687+r<*-): {rn mloqommmnlffhfonkm mkgqffffffffffffhh o rjqoooooooooooolom gqiiomjkolhgkkmnnk o V V |
  1
,+->687+r<*-): {rn mooqoooooooooomfn lonqooooooooooooml o rkqffffffffffffhllj rgqiiomjkolhgkkjkon o V V |
  1
/061+ {rn nifqfhhhgioomngjgf mkgqffffffffffffhh o |
  1
/061+ {rn mloqommmnlffhfonkm mkgqffffffffffffhh o |
  1
/061+ {rn mooqoooooooooomfn lonqooooooooooooml o |
  0
LINE
  5
9E
330
2
100
AcDbEntity
  8
A1枠
 62
     9
100
AcDbLine
 10
250.0000000000363
 20
309.9999999999991
 30
0.0
 11
250.0000000000363
 21
160.0
 31
0.0
  0
LINE
  5
9F
330
2
100
AcDbEntity
  8
A1枠
 62
     9
100
AcDbLine
 10
400.0000000000364
 20
309.9999999999979
 30
0.0
 11
400.0000000000364
 21
160.0
 31
0.0
  0
MTEXT
  5
A0
330
2
100
AcDbEntity
  8
A1枠
  6
Continuous
 62
     9
100
AcDbMText
 10
550.3673131902178
 20
216.393564308654
 30
0.0
 40
25.0
 41
0.0
 71
     1
 72
     5
  1
Revision
  7
TITLE
 73
     1
 44
1.0
  0
MTEXT
  5
A1
330
2
100
AcDbEntity
  8
AM_5
100
AcDbMText
 10
742.6695979389951
 20
844.7047086465781
 30
0.0
 40
45.0
 41
0.0
 71
     5
 72
     5
  1
A
  7
MSゴシック
 73
     1
 44
1.0
  0
LWPOLYLINE
  5
A3
330
2
100
AcDbEntity
  8
AM_5
100
AcDbPolyline
 90
        2
 70
     0
 43
5.625
 10
790.5196152212101
 20
882.8464176641137
 10
655.5196152212102
 20
882.8464176641137
  0
LWPOLYLINE
  5
A4
330
2
100
AcDbEntity
  8
AM_5
100
AcDbPolyline
 90
        3
 70
     0
 43
0.0
 10
662.6287087715627
 20
840.5602497287441
 10
678.0196152212101
 20
882.8464176641137
 10
693.4105216708831
 20
840.5602497287441
  0
LINE
  5
A5
330
2
100
AcDbEntity
  8
AM_5
100
AcDbLine
 10
678.0196152212138
 20
882.8464176641137
 30
0.0
 11
678.0196152212138
 21
792.8464176641137
 31
0.0
  0
LINE
  5
A6
330
2
100
AcDbEntity
  8
A1枠
 62
     9
100
AcDbLine
 10
1200.000000000036
 20
309.999999999991
 30
0.0
 11
1200.000000000036
 21
159.999999999992
 31
0.0
  0
LINE
  5
A7
330
2
100
AcDbEntity
  8
A1枠
 62
     9
100
AcDbLine
 10
1050.000000000036
 20
309.9999999999923
 30
0.0
 11
1050.000000000036
 21
159.9999999999931
 31
0.0
  0
MTEXT
  5
A8
330
2
100
AcDbEntity
  8
A1枠
  6
Continuous
 62
     9
100
AcDbMText
 10
1055.492267073088
 20
234.7474054718395
 30
0.0
 40
25.0
 41
0.0
 71
     1
 72
     5
  1
Revised\Pby
  7
TITLE
 73
     1
 44
1.0
  0
MTEXT
  5
A9
330
2
100
AcDbEntity
  8
A1枠
  6
Continuous
 62
     9
100
AcDbMText
 10
1203.851742463557
 20
238.0844661712639
 30
0.0
 40
25.0
 41
0.0
 71
     1
 72
     5
  1
Approved\Pby
  7
TITLE
 73
     1
 44
1.0
  0
LINE
  5
AA
330
2
100
AcDbEntity
  8
A1枠
 62
     9
100
AcDbLine
 10
1350.000000000036
 20
309.9999999999897
 30
0.0
 11
1350.000000000036
 21
160.0
 31
0.0
  0
CIRCLE
  5
AB
330
2
100
AcDbEntity
  8
AM_6
100
AcDbCircle
 10
1690.8979455354
 20
324.8464382833844
 30
0.0
 40
40.0
  0
MTEXT
  5
AC
330
2
100
AcDbEntity
  8
AM_6
100
AcDbMText
 10
1688.893069371732
 20
326.3216936510725
 30
0.0
 40
38.0
 41
0.0
 71
     5
 72
     1
  1
1-1
  7
スタイル１
 73
     1
 44
1.0
  0
CIRCLE
  5
AD
330
2
100
AcDbEntity
  8
AM_6
100
AcDbCircle
 10
1783.239172605945
 20
324.8464382833844
 30
0.0
 40
40.0
  0
MTEXT
  5
AE
330
2
100
AcDbEntity
  8
AM_6
100
AcDbMText
 10
1781.234296442276
 20
326.3216936510725
 30
0.0
 40
38.0
 41
0.0
 71
     5
 72
     1
  1
1-2
  7
スタイル１
 73
     1
 44
1.0
  0
MTEXT
  5
AF
330
2
100
AcDbEntity
  8
AM_5
100
AcDbMText
 10
1485.956632326351
 20
797.9282944840352
 30
0.0
 40
35.0
 41
0.0
 71
     5
 72
     1
  1
745.24
  7
スタイル１
 11
0.9271838545667872
 21
-0.3746065934159124
 31
0.0
 73
     1
 44
1.0
  0
MTEXT
  5
B0
330
2
100
AcDbEntity
  8
AM_5
100
AcDbMText
 10
1646.698703528499
 20
842.8732395263383
 30
0.0
 40
35.0
 41
0.0
 71
     5
 72
     1
  1
571.73
  7
スタイル１
 11
0.9271838545667872
 21
-0.3746065934159124
 31
0.0
 73
     1
 44
1.0
  0
LINE
  5
B1
330
2
100
AcDbEntity
  8
固定ノズル
100
AcDbLine
 10
1606.225096231539
 20
1050.015420020348
 30
0.0
 11
1326.225096231539
 21
1050.015420020348
 31
0.0
  0
LINE
  5
B3
330
2
100
AcDbEntity
  8
固定ノズル
100
AcDbLine
 10
1606.225096231539
 20
1006.015420020348
 30
0.0
 11
1326.225096231539
 21
1006.015420020348
 31
0.0
  0
LINE
  5
B4
330
2
100
AcDbEntity
  8
固定ノズル
100
AcDbLine
 10
1326.225096231539
 20
1028.015420020348
 30
0.0
 11
1606.225096231539
 21
1028.015420020347
 31
0.0
  0
LINE
  5
B5
330
2
100
AcDbEntity
  8
固定ノズル
100
AcDbLine
 10
1383.625096231539
 20
1276.514904663918
 30
0.0
 11
1383.625096231539
 21
1050.015420020348
 31
0.0
  0
LINE
  5
B6
330
2
100
AcDbEntity
  8
固定ノズル
100
AcDbLine
 10
1394.62509623154
 20
1050.015420020348
 30
0.0
 11
1394.62509623154
 21
1278.217505963375
 31
0.0
  0
LINE
  5
B7
330
2
100
AcDbEntity
  8
AM_5
 62
     2
380
     1
100
AcDbLine
 10
1083.625573310737
 20
1022.350817196254
 30
0.0
 11
1064.804971943947
 21
1030.982368132273
 31
0.0
  0
LINE
  5
B8
330
2
100
AcDbEntity
  8
AM_5
 62
     2
380
     1
100
AcDbLine
 10
1064.804971943947
 20
1030.982368132273
 30
0.0
 11
1076.78831545068
 21
1014.09692511859
 31
0.0
  0
LINE
  5
B9
330
2
100
AcDbEntity
  8
固定ノズル
100
AcDbLine
 10
1356.27509623154
 20
1006.015420020348
 30
0.0
 11
1356.27509623154
 21
1003.015420020348
 31
0.0
  0
LINE
  5
BA
330
2
100
AcDbEntity
  8
固定ノズル
100
AcDbLine
 10
1336.175096231539
 20
1006.015420020348
 30
0.0
 11
1336.175096231539
 21
1003.015420020348
 31
0.0
  0
LINE
  5
BB
330
2
100
AcDbEntity
  8
固定ノズル
100
AcDbLine
 10
1329.225096231539
 20
1006.015420020348
 30
0.0
 11
1329.225096231539
 21
1003.015420020348
 31
0.0
  0
LINE
  5
BC
330
2
100
AcDbEntity
  8
固定ノズル
100
AcDbLine
 10
1329.225096231539
 20
1003.015420020348
 30
0.0
 11
1363.225096231539
 21
1003.015420020348
 31
0.0
  0
LINE
  5
BD
330
2
100
AcDbEntity
  8
固定ノズル
100
AcDbLine
 10
1363.225096231539
 20
1006.015420020348
 30
0.0
 11
1329.225096231539
 21
1006.015420020348
 31
0.0
  0
LINE
  5
BE
330
2
100
AcDbEntity
  8
固定ノズル
100
AcDbLine
 10
1326.225096231539
 20
1006.015420020348
 30
0.0
 11
1326.225096231539
 21
1028.015420020348
 31
0.0
  0
LINE
  5
BF
330
2
100
AcDbEntity
  8
固定ノズル
100
AcDbLine
 10
1326.225096231539
 20
1050.015420020348
 30
0.0
 11
1326.225096231539
 21
1028.015420020348
 31
0.0
  0
LINE
  5
C0
330
2
100
AcDbEntity
  8
固定ノズル
100
AcDbLine
 10
1330.63663896342
 20
990.0154200203488
 30
0.0
 11
1361.81355349966
 21
990.0154200203488
 31
0.0
  0
ARC
  5
C1
330
2
100
AcDbEntity
  8
固定ノズル
100
AcDbCircle
 10
1346.225096231539
 20
1006.202920020348
 30
0.0
 40
16.18750000000003
100
AcDbArc
 50
241.2167972061773
 51
298.7832027938226
  0
LINE
  5
C2
330
2
100
AcDbEntity
  8
固定ノズル
100
AcDbLine
 10
1338.43086759748
 20
990.0154200203488
 30
0.0
 11
1338.43086759748
 21
1003.015420020348
 31
0.0
  0
LINE
  5
C3
330
2
100
AcDbEntity
  8
固定ノズル
100
AcDbLine
 10
1354.019324865599
 20
990.0154200203488
 30
0.0
 11
1354.019324865599
 21
1003.015420020348
 31
0.0
  0
ARC
  5
C4
330
2
100
AcDbEntity
  8
固定ノズル
100
AcDbCircle
 10
1357.916439182629
 20
994.8122950203478
 30
0.0
 40
4.796874999999844
100
AcDbArc
 50
215.6661890521672
 51
324.3338109478328
  0
LINE
  5
C5
330
2
100
AcDbEntity
  8
固定ノズル
100
AcDbLine
 10
1330.63663896342
 20
990.0154200203488
 30
0.0
 11
1330.63663896342
 21
1003.015420020348
 31
0.0
  0
ARC
  5
C6
330
2
100
AcDbEntity
  8
固定ノズル
100
AcDbCircle
 10
1334.533753280449
 20
994.8122950203487
 30
0.0
 40
4.796874999999844
100
AcDbArc
 50
215.6661890521672
 51
324.3338109478328
  0
LINE
  5
C7
330
2
100
AcDbEntity
  8
固定ノズル
100
AcDbLine
 10
1363.225096231539
 20
1006.015420020348
 30
0.0
 11
1363.225096231539
 21
1003.015420020348
 31
0.0
  0
LINE
  5
C8
330
2
100
AcDbEntity
  8
固定ノズル
100
AcDbLine
 10
1361.81355349966
 20
990.0154200203488
 30
0.0
 11
1361.81355349966
 21
1003.015420020348
 31
0.0
  0
LINE
  5
C9
330
2
100
AcDbEntity
  8
AM_7
100
AcDbLine
 10
1346.225096231539
 20
1070.015420020348
 30
0.0
 11
1346.225096231539
 21
966.0154200203487
 31
0.0
  0
LINE
  5
CA
330
2
100
AcDbEntity
  8
AM_5
 62
     2
380
     1
100
AcDbLine
 10
1323.457333134143
 20
969.8517990715609
 30
0.0
 11
1303.725096230819
 21
976.1253574047414
 31
0.0
  0
LINE
  5
CB
330
2
100
AcDbEntity
  8
AM_5
 62
     2
380
     1
100
AcDbLine
 10
1303.725096230819
 20
976.1253574047414
 30
0.0
 11
1317.676935565405
 21
960.826178127716
 31
0.0
  0
ARC
  5
CC
330
2
100
AcDbEntity
  8
固定ノズル
100
AcDbCircle
 10
2116.225096231568
 20
2237.015420020342
 30
0.0
 40
1200.0
100
AcDbArc
 50
231.2277560376624
 51
233.0345495861542
  0
LINE
  5
CD
330
2
100
AcDbEntity
  8
固定ノズル
100
AcDbLine
 10
1359.743846805282
 20
1295.208582464758
 30
0.0
 11
1364.753656404133
 21
1301.445713839299
 31
0.0
  0
ARC
  5
CE
330
2
100
AcDbEntity
  8
固定ノズル
100
AcDbCircle
 10
2116.225096231568
 20
2237.015420020342
 30
0.0
 40
1208.0
100
AcDbArc
 50
231.2277560376624
 51
232.6662438044216
  0
LINE
  5
CF
330
2
100
AcDbEntity
  8
AM_3
 48
0.2
100
AcDbLine
 10
1340.553238479642
 20
1321.41006338835
 30
0.0
 11
1345.810870257517
 21
1327.440837911588
 31
0.0
  0
LINE
  5
D2
330
2
100
AcDbEntity
  8
AM_0
100
AcDbLine
 10
1394.625096231191
 20
1288.249147432157
 30
0.0
 11
1394.625096231191
 21
1278.217505962924
 31
0.0
  0
LINE
  5
D3
330
2
100
AcDbEntity
  8
AM_3
 48
0.2
100
AcDbLine
 10
1314.925036127037
 20
1343.752741029443
 30
0.0
 11
1320.18266790491
 21
1349.783515552682
 31
0.0
  0
LINE
  5
D4
330
2
100
AcDbEntity
  8
AM_7
100
AcDbLine
 10
1466.225096231539
 20
1399.513657931887
 30
0.0
 11
1466.225096231541
 21
956.0154200203488
 31
0.0
  0
LINE
  5
D5
330
2
100
AcDbEntity
  8
固定ノズル
100
AcDbLine
 10
1548.825096231539
 20
1050.015420020348
 30
0.0
 11
1548.825096231539
 21
1170.562776908625
 31
0.0
  0
LINE
  5
D6
330
2
100
AcDbEntity
  8
固定ノズル
100
AcDbLine
 10
1537.825096231541
 20
1185.609960647047
 30
0.0
 11
1537.825096231539
 21
1050.015420020348
 31
0.0
  0
LINE
  5
D7
330
2
100
AcDbEntity
  8
固定ノズル
100
AcDbLine
 10
1606.225096231539
 20
1028.015420020348
 30
0.0
 11
1606.225096231539
 21
1006.015420020348
 31
0.0
  0
LINE
  5
D8
330
2
100
AcDbEntity
  8
固定ノズル
100
AcDbLine
 10
1569.225096231539
 20
1003.015420020348
 30
0.0
 11
1603.225096231539
 21
1003.015420020348
 31
0.0
  0
LINE
  5
D9
330
2
100
AcDbEntity
  8
固定ノズル
100
AcDbLine
 10
1603.225096231539
 20
1006.015420020348
 30
0.0
 11
1569.225096231539
 21
1006.015420020348
 31
0.0
  0
LINE
  5
DA
330
2
100
AcDbEntity
  8
固定ノズル
100
AcDbLine
 10
1576.17509623154
 20
1006.015420020348
 30
0.0
 11
1576.17509623154
 21
1003.015420020348
 31
0.0
  0
LINE
  5
DB
330
2
100
AcDbEntity
  8
固定ノズル
100
AcDbLine
 10
1569.225096231539
 20
1006.015420020348
 30
0.0
 11
1569.225096231539
 21
1003.015420020348
 31
0.0
  0
LINE
  5
DC
330
2
100
AcDbEntity
  8
固定ノズル
100
AcDbLine
 10
1596.27509623154
 20
1006.015420020348
 30
0.0
 11
1596.27509623154
 21
1003.015420020348
 31
0.0
  0
LINE
  5
DD
330
2
100
AcDbEntity
  8
固定ノズル
100
AcDbLine
 10
1603.225096231539
 20
1006.015420020348
 30
0.0
 11
1603.225096231539
 21
1003.015420020348
 31
0.0
  0
LINE
  5
DE
330
2
100
AcDbEntity
  8
固定ノズル
100
AcDbLine
 10
1606.225096231539
 20
1028.015420020348
 30
0.0
 11
1606.225096231539
 21
1050.015420020348
 31
0.0
  0
LINE
  5
DF
330
2
100
AcDbEntity
  8
固定ノズル
100
AcDbLine
 10
1570.63663896342
 20
990.0154200203488
 30
0.0
 11
1601.81355349966
 21
990.0154200203488
 31
0.0
  0
ARC
  5
E0
330
2
100
AcDbEntity
  8
固定ノズル
100
AcDbCircle
 10
1586.225096231539
 20
1006.202920020348
 30
0.0
 40
16.18750000000003
100
AcDbArc
 50
241.2167972061773
 51
298.7832027938226
  0
LINE
  5
E1
330
2
100
AcDbEntity
  8
固定ノズル
100
AcDbLine
 10
1570.63663896342
 20
990.0154200203488
 30
0.0
 11
1570.63663896342
 21
1003.015420020348
 31
0.0
  0
LINE
  5
E2
330
2
100
AcDbEntity
  8
固定ノズル
100
AcDbLine
 10
1578.43086759748
 20
990.0154200203488
 30
0.0
 11
1578.43086759748
 21
1003.015420020348
 31
0.0
  0
ARC
  5
E3
330
2
100
AcDbEntity
  8
固定ノズル
100
AcDbCircle
 10
1574.533753280449
 20
994.8122950203487
 30
0.0
 40
4.796874999999844
100
AcDbArc
 50
215.6661890521672
 51
324.3338109478328
  0
LINE
  5
E4
330
2
100
AcDbEntity
  8
固定ノズル
100
AcDbLine
 10
1601.81355349966
 20
990.0154200203488
 30
0.0
 11
1601.81355349966
 21
1003.015420020348
 31
0.0
  0
LINE
  5
E5
330
2
100
AcDbEntity
  8
固定ノズル
100
AcDbLine
 10
1594.019324865599
 20
990.0154200203488
 30
0.0
 11
1594.019324865599
 21
1003.015420020348
 31
0.0
  0
ARC
  5
E6
330
2
100
AcDbEntity
  8
固定ノズル
100
AcDbCircle
 10
1597.916439182629
 20
994.8122950203478
 30
0.0
 40
4.796874999999844
100
AcDbArc
 50
215.6661890521672
 51
324.3338109478328
  0
LINE
  5
E7
330
2
100
AcDbEntity
  8
固定ノズル
100
AcDbLine
 10
1583.906125478853
 20
1161.545051587639
 30
0.0
 11
1580.357332340503
 21
1154.375249131422
 31
0.0
  0
ARC
  5
E8
330
2
100
AcDbEntity
  8
固定ノズル
100
AcDbCircle
 10
2116.225096231568
 20
2237.015420020342
 30
0.0
 40
1208.0
100
AcDbArc
 50
241.9850464090218
 51
243.666252923417
  0
LINE
  5
E9
330
2
100
AcDbEntity
  8
AM_0
100
AcDbLine
 10
1537.825096231192
 20
1194.749887633817
 30
0.0
 11
1537.825096231192
 21
1185.609960646569
 31
0.0
  0
ARC
  5
EA
330
2
100
AcDbEntity
  8
固定ノズル
100
AcDbCircle
 10
2116.225096231568
 20
2237.015420020342
 30
0.0
 40
1200.0
100
AcDbArc
 50
241.1838931671646
 51
243.666252923417
  0
LINE
  5
EB
330
2
100
AcDbEntity
  8
AM_7
100
AcDbLine
 10
1586.225096231539
 20
1070.015420020348
 30
0.0
 11
1586.225096231539
 21
966.0154200203487
 31
0.0
  0
MTEXT
  5
F5
330
2
100
AcDbEntity
  8
AM_5
100
AcDbMText
 10
339.8766848520008
 20
2636.088720127601
 30
0.0
 40
34.99999999999998
 41
0.0
 71
     5
 72
     1
  1
3539.56
  7
スタイル１
 11
0.2419218955996677
 21
0.9702957262759964
 31
0.0
 73
     1
 44
1.0
  0
MTEXT
  5
F6
330
2
100
AcDbEntity
  8
AM_5
100
AcDbMText
 10
437.3765481278151
 20
2613.957470469222
 30
0.0
 40
34.99999999999998
 41
0.0
 71
     5
 72
     1
  1
2739.56
  7
スタイル１
 11
0.2419218955996677
 21
0.9702957262759964
 31
0.0
 73
     1
 44
1.0
  0
MTEXT
  5
F7
330
2
100
AcDbEntity
  8
AM_5
100
AcDbMText
 10
176.2023536368451
 20
2248.141308070553
 30
0.0
 40
45.0
 41
0.0
 71
     5
 72
     5
  1
ｃ
  7
スタイル１
 73
     1
 44
1.0
  0
MTEXT
  5
F8
330
2
100
AcDbEntity
  8
AM_5
100
AcDbMText
 10
194.9887021337726
 20
2238.189643987221
 30
0.0
 40
45.0
 41
0.0
 71
     5
 72
     5
  1
L
  7
スタイル１
 73
     1
 44
1.0
  0
LEADER
  5
F9
330
2
100
AcDbEntity
  8
AM_5
100
AcDbLeader
  3
スタイル2
 73
     0
 75
     1
 40
41.21827411167512
 41
131.6497461928933
 76
     3
 10
963.575777330263
 20
2570.781127721167
 30
0.0
 10
862.7250449041476
 20
2781.334886585566
 30
0.0
 10
842.7250449041476
 20
2781.334886585566
 30
0.0
340
FA
1001
ACAD
1000
DSTYLE
1002
{
1070
   147
1040
5.0
1070
    77
1070
     1
1070
   271
1070
     1
1070
   272
1070
     1
1002
}
  0
MTEXT
  5
FA
102
{ACAD_REACTORS
330
F9
102
}
330
2
100
AcDbEntity
  8
AM_5
100
AcDbMText
 10
837.7250449041476
 20
2786.334886585565
 30
0.0
 40
35.0
 41
0.0
 71
     9
 72
     1
  1
Outer Wall-2
  7
スタイル１
 73
     1
 44
1.0
  0
MTEXT
  5
FB
330
2
100
AcDbEntity
  8
AM_5
100
AcDbMText
 10
760.0309365091689
 20
2736.264569527258
 30
0.0
 40
38.0
 41
0.0
 71
     5
 72
     1
  1
1-2
  7
スタイル１
 73
     1
 44
1.0
  0
CIRCLE
  5
FC
330
2
100
AcDbEntity
  8
AM_5
100
AcDbCircle
 10
759.252608300123
 20
2732.510061157081
 30
0.0
 40
40.0
  0
DIMENSION
  5
FD
330
2
100
AcDbEntity
  8
AM_5
100
AcDbDimension
  2
*D16
 10
1087.141234472324
 20
2838.5554481706
 30
0.0
 11
1034.870479046315
 21
2895.17177834111
 31
0.0
 70
     1
  1
t<>
 71
     5
 42
7.99999999999477
  3
スタイル2
100
AcDbAlignedDimension
 13
1080.234631373279
 23
2842.592629567587
 33
0.0
 14
1087.141234472324
 24
2838.5554481706
 34
0.0
1001
ACAD
1000
DSTYLE
1002
{
1070
   271
1070
     1
1070
   272
1070
     1
1070
   280
1070
     1
1002
}
  0
ARC
  5
10A
330
2
100
AcDbEntity
  8
実線
100
AcDbCircle
 10
2116.290299536307
 20
2236.947180246176
 30
0.0
 40
1186.0
100
AcDbArc
 50
132.9718006522006
 51
134.4211423166525
  0
LINE
  5
10C
330
2
100
AcDbEntity
  8
実線
100
AcDbLine
 10
1303.65668432376
 20
3109.137301393297
 30
0.0
 11
1307.867244838206
 21
3104.730658213227
 31
0.0
  0
LINE
  5
10D
330
2
100
AcDbEntity
  8
実線
100
AcDbLine
 10
1281.966393564086
 20
3088.412164801207
 30
0.0
 11
1286.176954078532
 21
3084.005521621137
 31
0.0
  0
LINE
  5
10E
330
2
100
AcDbEntity
  8
AM_0
100
AcDbLine
 10
1287.219632547914
 20
3104.627050407265
 30
0.0
 11
1292.746335639138
 21
3098.842972871352
 31
0.0
  0
LEADER
  5
10F
330
2
100
AcDbEntity
  8
AM_5
100
AcDbLeader
  3
スタイル2
 73
     0
 75
     1
 40
42.28426395939086
 41
172.6903553299492
 76
     3
 10
1348.971033069317
 20
4985.125752589532
 30
0.0
 10
806.8390702445231
 20
5496.682342563226
 30
0.0
 10
786.8390702445231
 20
5496.682342563226
 30
0.0
340
110
1001
ACAD
1000
DSTYLE
1002
{
1070
   147
1040
5.0
1070
    77
1070
     1
1002
}
  0
MTEXT
  5
110
102
{ACAD_REACTORS
330
10F
102
}
330
2
100
AcDbEntity
  8
AM_5
100
AcDbMText
 10
781.839070244523
 20
5501.682342563227
 30
0.0
 40
35.0
 41
0.0
 71
     9
 72
     1
  1
61.5 diam. Through Hole
  7
スタイル１
 73
     1
 44
1.0
  0
LEADER
  5
111
330
2
100
AcDbEntity
  8
AM_5
100
AcDbLeader
  3
スタイル2
 73
     0
 75
     1
 40
42.28426395939086
 41
127.2081218274111
 76
     3
 10
1354.867746520962
 20
5217.85866302336
 30
0.0
 10
798.7467286539013
 20
5595.918180769029
 30
0.0
 10
778.7467286539013
 20
5595.918180769029
 30
0.0
340
112
1001
ACAD
1000
DSTYLE
1002
{
1070
   147
1040
5.0
1070
    77
1070
     1
1002
}
  0
MTEXT
  5
112
102
{ACAD_REACTORS
330
111
102
}
330
2
100
AcDbEntity
  8
AM_5
100
AcDbMText
 10
773.7467286539013
 20
5600.91818076903
 30
0.0
 40
35.0
 41
0.0
 71
     9
 72
     1
  1
28 diam. Through Hole
  7
スタイル１
 73
     1
 44
1.0
  0
LINE
  5
113
330
2
100
AcDbEntity
  8
AM_7
100
AcDbLine
 10
1366.225096231242
 20
5273.672662317228
 30
0.0
 11
1366.225096231242
 21
3141.121392281387
 31
0.0
  0
LINE
  5
114
330
2
100
AcDbEntity
  8
AM_7
100
AcDbLine
 10
1701.225096231242
 20
5644.67266231723
 30
0.0
 11
1701.225096231242
 21
3259.897426287603
 31
0.0
  0
LINE
  5
115
330
2
100
AcDbEntity
  8
AM_0
100
AcDbLine
 10
1287.219632547609
 20
4324.672662317305
 30
0.0
 11
1287.219632547609
 21
5594.672662317305
 31
0.0
  0
CIRCLE
  5
116
330
2
100
AcDbEntity
  8
AM_0
100
AcDbCircle
 10
1701.225096231191
 20
5370.672662317305
 30
0.0
 40
168.5
  0
LINE
  5
117
330
2
100
AcDbEntity
  8
AM_3
100
AcDbLine
 10
924.2250962311899
 20
5594.672662317305
 30
0.0
 11
924.2250962311899
 21
4324.672662317305
 31
0.0
  0
LINE
  5
118
330
2
100
AcDbEntity
  8
AM_0
100
AcDbLine
 10
916.2250962311899
 20
5594.672662317305
 30
0.0
 11
916.2250962311899
 21
4324.672662317305
 31
0.0
  0
DIMENSION
  5
119
330
2
100
AcDbEntity
  8
AM_5
100
AcDbDimension
  2
*D4
 10
637.1646901992699
 20
4959.672662317306
 30
0.0
 11
614.664690199269
 21
5199.672662317305
 31
0.0
 71
     5
 42
480.0
  3
スタイル2
100
AcDbAlignedDimension
 13
1359.901484391981
 23
5439.672662317305
 33
0.0
 14
866.2250962311899
 24
4959.672662317306
 34
0.0
 50
90.0
100
AcDbRotatedDimension
1001
ACAD
1000
DSTYLE
1002
{
1070
   174
1070
     1
1070
   271
1070
     1
1070
   272
1070
     1
1070
   279
1070
     2
1002
}
  0
LINE
  5
126
330
2
100
AcDbEntity
  8
AM_5
 62
     2
100
AcDbLine
 10
934.8923104825061
 20
3473.361993321615
 30
0.0
 11
1280.311253683883
 21
3111.857147327157
 31
0.0
  0
LINE
  5
127
330
2
100
AcDbEntity
  8
AM_5
 62
     2
380
     1
100
AcDbLine
 10
941.8006893474084
 20
3466.13189640269
 30
0.0
 11
923.7362073156074
 21
3456.012944070982
 31
0.0
  0
LINE
  5
128
330
2
100
AcDbEntity
  8
AM_5
 62
     2
380
     1
100
AcDbLine
 10
931.2158650867841
 20
3448.336385655864
 30
0.0
 11
941.8006893474084
 21
3466.13189640269
 31
0.0
  0
LINE
  5
129
330
2
100
AcDbEntity
  8
AM_5
 62
     2
380
     1
100
AcDbLine
 10
941.8006893469101
 20
3466.131896402213
 30
0.0
 11
952.7308498670372
 21
3483.71741028077
 31
0.0
  0
LINE
  5
12A
330
2
100
AcDbEntity
  8
AM_5
 62
     2
380
     1
100
AcDbLine
 10
960.0592429197641
 20
3475.896317982416
 30
0.0
 11
941.8006893469101
 21
3466.131896402213
 31
0.0
  0
MTEXT
  5
12B
330
2
100
AcDbEntity
  8
AM_5
100
AcDbMText
 10
1349.965595758249
 20
3666.436555391163
 30
0.0
 40
34.99999999999999
 41
0.0
 71
     5
 72
     1
  1
386.41
  7
スタイル１
 11
0.8910065241883678
 21
0.4539904997395468
 31
0.0
 73
     1
 44
1.0
  0
MTEXT
  5
12C
330
2
100
AcDbEntity
  8
AM_5
100
AcDbMText
 10
1495.237278906517
 20
3629.952691864392
 30
0.0
 40
35.0
 41
0.0
 71
     5
 72
     1
  1
625.65
  7
スタイル１
 11
0.9093314626229734
 21
0.4160724589346956
 31
0.0
 73
     1
 44
1.0
  0
LINE
  5
12D
330
2
100
AcDbEntity
  8
AM_3
100
AcDbLine
 10
1435.499868619715
 20
3225.25282292131
 30
0.0
 11
1440.131382823279
 21
3218.728866342359
 31
0.0
  0
LINE
  5
12E
330
2
100
AcDbEntity
  8
AM_3
100
AcDbLine
 10
1407.775854282799
 20
3205.570876141424
 30
0.0
 11
1412.407368486363
 21
3199.046919562472
 31
0.0
  0
LINE
  5
12F
330
2
100
AcDbEntity
  8
AM_3
100
AcDbLine
 10
1380.225096231191
 20
3174.655009627777
 30
0.0
 11
1380.225096231191
 21
3184.804426075587
 31
0.0
  0
LINE
  5
130
330
2
100
AcDbEntity
  8
AM_3
100
AcDbLine
 10
1352.225096231191
 20
3162.382374260234
 30
0.0
 11
1352.225096231191
 21
3151.984271948768
 31
0.0
  0
LINE
  5
131
330
2
100
AcDbEntity
  8
AM_5
 62
     2
380
     1
100
AcDbLine
 10
1116.26900699088
 20
3485.960175177544
 30
0.0
 11
1097.313675144019
 21
3477.628662593144
 31
0.0
  0
LINE
  5
132
330
2
100
AcDbEntity
  8
AM_5
 62
     2
380
     1
100
AcDbLine
 10
1104.018964290806
 20
3469.267207759645
 30
0.0
 11
1116.26900699088
 21
3485.960175177544
 31
0.0
  0
LINE
  5
133
330
2
100
AcDbEntity
  8
AM_5
 62
     2
380
     1
100
AcDbLine
 10
1135.237383224974
 20
3494.261946702847
 30
0.0
 11
1116.269006991815
 21
3485.960175178291
 31
0.0
  0
LINE
  5
134
330
2
100
AcDbEntity
  8
AM_5
 62
     2
380
     1
100
AcDbLine
 10
1116.269006991815
 20
3485.960175178291
 30
0.0
 11
1128.545216991633
 21
3502.63390827586
 31
0.0
  0
MTEXT
  5
135
330
2
100
AcDbEntity
  8
AM_5
100
AcDbMText
 10
1054.667408095332
 20
3463.196886363801
 30
0.0
 40
34.99999999999999
 41
0.0
 71
     5
 72
     1
  1
105.01
  7
スタイル１
 11
0.7660444431189783
 21
0.6427876096865394
 31
0.0
 73
     1
 44
1.0
  0
LINE
  5
136
330
2
100
AcDbEntity
  8
AM_5
 62
     2
380
     1
100
AcDbLine
 10
1029.272500160292
 20
3403.388595323818
 30
0.0
 11
1010.929432245671
 21
3393.783879458772
 31
0.0
  0
LINE
  5
137
330
2
100
AcDbEntity
  8
AM_5
 62
     2
380
     1
100
AcDbLine
 10
1010.929432245671
 20
3393.783879458772
 30
0.0
 11
1022.012637189895
 21
3411.273341301064
 31
0.0
  0
LINE
  5
138
330
2
100
AcDbEntity
  8
AM_5
 62
     2
380
     1
100
AcDbLine
 10
1267.405187297472
 20
3467.092081378321
 30
0.0
 11
1247.903914768085
 21
3460.13369959063
 31
0.0
  0
LINE
  5
139
330
2
100
AcDbEntity
  8
AM_5
 62
     2
380
     1
100
AcDbLine
 10
1247.903914768085
 20
3460.13369959063
 30
0.0
 11
1261.313321362384
 21
3475.910471191861
 31
0.0
  0
LINE
  5
13A
330
2
100
AcDbEntity
  8
AM_3
100
AcDbLine
 10
1532.725096231192
 20
3285.599107667198
 30
0.0
 11
1532.725096231192
 21
3276.434368278978
 31
0.0
  0
LINE
  5
13E
330
2
100
AcDbEntity
  8
AM_3
100
AcDbLine
 10
1869.725096231191
 20
3403.249423125608
 30
0.0
 11
1869.725096231191
 21
3411.424952508446
 31
0.0
  0
MTEXT
  5
13F
330
2
100
AcDbEntity
  8
AM_5
100
AcDbMText
 10
1305.066250166124
 20
3755.925718272417
 30
0.0
 40
34.99999999999999
 41
0.0
 71
     5
 72
     1
  1
800
  7
スタイル１
 11
0.8889288635354926
 21
0.4580452767723927
 31
0.0
 73
     1
 44
1.0
  0
LINE
  5
140
330
2
100
AcDbEntity
  8
AM_5
 62
     2
380
     1
100
AcDbLine
 10
1562.920967464084
 20
3738.209717244141
 30
0.0
 11
1583.540769657319
 21
3740.091860936991
 31
0.0
  0
LINE
  5
141
330
2
100
AcDbEntity
  8
AM_5
 62
     2
380
     1
100
AcDbLine
 10
1579.837168192176
 20
3750.149602515597
 30
0.0
 11
1562.920967464084
 21
3738.209717244141
 31
0.0
  0
LINE
  5
142
330
2
100
AcDbEntity
  8
AM_5
 62
     2
380
     1
100
AcDbLine
 10
1542.302302729434
 20
3736.315153456148
 30
0.0
 11
1562.920967463662
 21
3738.209717243985
 31
0.0
  0
LINE
  5
143
330
2
100
AcDbEntity
  8
AM_5
 62
     2
380
     1
100
AcDbLine
 10
1562.920967463662
 20
3738.209717243985
 30
0.0
 11
1546.011961851412
 21
3726.259644584223
 31
0.0
  0
MTEXT
  5
144
330
2
100
AcDbEntity
  8
AM_5
100
AcDbMText
 10
1774.961974618552
 20
3822.555670577468
 30
0.0
 40
34.99999999999999
 41
0.0
 71
     5
 72
     1
  1
308.58
  7
スタイル１
 11
0.9816271834476639
 21
0.1908089953765448
 31
0.0
 73
     1
 44
1.0
  0
LEADER
  5
145
330
2
100
AcDbEntity
  8
AM_5
100
AcDbLeader
  3
スタイル2
 73
     0
 75
     1
 40
42.28426395939086
 41
127.2081218274111
 76
     3
 10
1355.899493334898
 20
4699.083707998787
 30
0.0
 10
819.0298324789491
 20
4346.158507386953
 30
0.0
 10
799.0298324789492
 20
4346.158507386953
 30
0.0
340
146
1001
ACAD
1000
DSTYLE
1002
{
1070
   147
1040
5.0
1070
    77
1070
     1
1002
}
  0
MTEXT
  5
146
102
{ACAD_REACTORS
330
145
102
}
330
2
100
AcDbEntity
  8
AM_5
100
AcDbMText
 10
794.0298324789491
 20
4351.158507386954
 30
0.0
 40
35.0
 41
0.0
 71
     9
 72
     1
  1
28 diam. Through Hole
  7
スタイル１
 73
     1
 44
1.0
  0
DIMENSION
  5
147
330
2
100
AcDbEntity
  8
AM_5
100
AcDbDimension
  2
*D10
 10
736.5924854789355
 20
4959.672662317306
 30
0.0
 11
714.0924854789346
 21
5084.672662317306
 31
0.0
 71
     5
 42
250.0
  3
スタイル2
100
AcDbAlignedDimension
 13
1288.225096231191
 23
5209.672662317306
 33
0.0
 14
816.2250962311899
 24
4959.672662317306
 34
0.0
 50
90.0
100
AcDbRotatedDimension
  0
DIMENSION
  5
154
330
2
100
AcDbEntity
  8
AM_5
100
AcDbDimension
  2
*D9
 10
736.5924854789355
 20
4709.672662317305
 30
0.0
 11
714.0924854789347
 21
4834.672662317306
 31
0.0
 71
     5
 42
250.0
  3
スタイル2
100
AcDbAlignedDimension
 13
816.2250962311899
 23
4959.672662317306
 33
0.0
 14
1288.225096231191
 24
4709.672662317305
 34
0.0
 50
90.0
100
AcDbRotatedDimension
1001
ACAD
1000
DSTYLE
1002
{
1070
   279
1070
     1
1002
}
  0
DIMENSION
  5
161
330
2
100
AcDbEntity
  8
AM_5
100
AcDbDimension
  2
*D5
 10
637.1646901992699
 20
4479.672662317305
 30
0.0
 11
614.6646901992692
 21
4719.672662317305
 31
0.0
 71
     5
 42
480.0
  3
スタイル2
100
AcDbAlignedDimension
 13
866.2250962311899
 23
4959.672662317306
 33
0.0
 14
1359.901484391981
 24
4479.672662317305
 34
0.0
 50
90.0
100
AcDbRotatedDimension
1001
ACAD
1000
DSTYLE
1002
{
1070
   174
1070
     1
1070
   271
1070
     1
1070
   272
1070
     1
1070
   279
1070
     2
1002
}
  0
MTEXT
  5
16E
330
2
100
AcDbEntity
  8
AM_5
100
AcDbMText
 10
599.4760201213666
 20
4972.758870900257
 30
0.0
 40
45.0
 41
0.0
 71
     5
 72
     5
  1
L
  7
スタイル１
 73
     1
 44
1.0
  0
MTEXT
  5
16F
330
2
100
AcDbEntity
  8
AM_5
100
AcDbMText
 10
580.6896716244391
 20
4982.710534983589
 30
0.0
 40
45.0
 41
0.0
 71
     5
 72
     5
  1
ｃ
  7
スタイル１
 73
     1
 44
1.0
  0
CIRCLE
  5
170
330
2
100
AcDbEntity
  8
AM_0
100
AcDbCircle
 10
1366.225096231191
 20
4709.672662317305
 30
0.0
 40
14.0
  0
LINE
  5
171
330
2
100
AcDbEntity
  8
AM_7
 48
0.5
100
AcDbLine
 10
1359.901484391981
 20
4479.672662317305
 30
0.0
 11
1483.234817725315
 21
4479.672662317305
 31
0.0
  0
LINE
  5
178
330
2
100
AcDbEntity
  8
AM_7
 48
0.5
100
AcDbLine
 10
1421.568151058647
 20
4540.672662317305
 30
0.0
 11
1421.568151058647
 21
4418.672662317304
 31
0.0
  0
LINE
  5
179
330
2
100
AcDbEntity
  8
AM_7
100
AcDbLine
 10
1300.725096231191
 20
4709.672662317305
 30
0.0
 11
1431.725096231192
 21
4709.672662317305
 31
0.0
  0
CIRCLE
  5
17E
330
2
100
AcDbEntity
  8
AM_0
100
AcDbCircle
 10
1701.225096231191
 20
4548.672662317305
 30
0.0
 40
168.5
  0
DIMENSION
  5
17F
330
2
100
AcDbEntity
  8
AM_5
100
AcDbDimension
  2
*D79
 10
1553.89395374393
 20
4466.906015979089
 30
0.0
 11
1763.825278302445
 21
4583.414855052089
 31
0.0
 70
   163
  1
337 diam.
 71
     5
 42
337.0000000000036
  3
スタイル2$3
100
AcDbDiametricDimension
 15
1848.556238718451
 25
4630.439308655522
 35
0.0
 40
0.0
  0
LINE
  5
18A
330
2
100
AcDbEntity
  8
AM_7
100
AcDbLine
 10
1510.225096231192
 20
4548.672662317305
 30
0.0
 11
1892.225096231191
 21
4548.672662317305
 31
0.0
  0
CIRCLE
  5
18B
330
2
100
AcDbEntity
  8
AM_0
100
AcDbCircle
 10
1366.225096231191
 20
4959.672662317306
 30
0.0
 40
30.75
  0
CIRCLE
  5
18C
330
2
100
AcDbEntity
  8
AM_0
100
AcDbCircle
 10
1366.225096231191
 20
5209.672662317306
 30
0.0
 40
14.0
  0
LINE
  5
18D
330
2
100
AcDbEntity
  8
AM_7
100
AcDbLine
 10
1300.725096231191
 20
5209.672662317306
 30
0.0
 11
1431.725096231192
 21
5209.672662317306
 31
0.0
  0
DIMENSION
  5
18E
330
2
100
AcDbEntity
  8
AM_5
100
AcDbDimension
  2
*D78
 10
1527.340206121845
 20
4819.257937335699
 30
0.0
 11
1687.033576314591
 21
4977.24696502314
 31
0.0
 70
    35
  1
447 diam.
 71
     5
 42
447.0000000000018
  3
スタイル2$3
100
AcDbDiametricDimension
 15
1875.109986340545
 25
5100.087387298909
 35
0.0
 40
0.0
  0
LINE
  5
19C
330
2
100
AcDbEntity
  8
AM_7
 48
0.5
100
AcDbLine
 10
1359.901484391981
 20
5439.672662317305
 30
0.0
 11
1483.234817725315
 21
5439.672662317305
 31
0.0
  0
LINE
  5
19D
330
2
100
AcDbEntity
  8
AM_7
 48
0.5
100
AcDbLine
 10
1421.568151058647
 20
5500.672662317305
 30
0.0
 11
1421.568151058647
 21
5378.672662317305
 31
0.0
  0
DIMENSION
  5
1A3
330
2
100
AcDbEntity
  8
AM_5
100
AcDbDimension
  2
*D77
 10
1553.893953743933
 20
5288.906015979084
 30
0.0
 11
1763.825278302439
 21
5405.414855052089
 31
0.0
 70
   163
  1
337 diam.
 71
     5
 42
336.9999999999981
  3
スタイル2$3
100
AcDbDiametricDimension
 15
1848.556238718444
 25
5452.439308655526
 35
0.0
 40
0.0
  0
LINE
  5
1AD
330
2
100
AcDbEntity
  8
AM_7
100
AcDbLine
 10
1510.22509623119
 20
5370.672662317305
 30
0.0
 11
1892.225096231191
 21
5370.672662317305
 31
0.0
  0
DIMENSION
  5
1AE
330
2
100
AcDbEntity
  8
AM_5
100
AcDbDimension
  2
*D45
 10
7211.614595228515
 20
3085.661629932609
 30
0.0
 11
7136.614595228514
 21
3108.161629932609
 31
0.0
 71
     5
 42
150.0000000000018
  3
スタイル2
100
AcDbAlignedDimension
 13
7061.614595228514
 23
2736.301159147232
 33
0.0
 14
7211.614595228515
 24
2824.50665725722
 34
0.0
100
AcDbRotatedDimension
1001
ACAD
1000
DSTYLE
1002
{
1070
   279
1070
     1
1002
}
  0
DIMENSION
  5
1BB
330
2
100
AcDbEntity
  8
AM_5
100
AcDbDimension
  2
*D43
 10
6101.614595228515
 20
3085.661629932609
 30
0.0
 11
6026.614595228513
 21
3108.161629932609
 31
0.0
 71
     5
 42
150.0000000000009
  3
スタイル2
100
AcDbAlignedDimension
 13
5951.614595228513
 23
2824.50665725722
 33
0.0
 14
6101.614595228515
 24
2736.301159147232
 34
0.0
100
AcDbRotatedDimension
  0
DIMENSION
  5
1C8
330
2
100
AcDbEntity
  8
AM_5
100
AcDbDimension
  2
*D49
 10
5420.641319363131
 20
3085.661629932609
 30
0.0
 11
5361.58040565755
 21
3108.161629932609
 31
0.0
 71
     5
 42
4.999999999998181
  3
スタイル2
100
AcDbAlignedDimension
 13
5415.641319363134
 23
2824.011374870698
 33
0.0
 14
5420.641319363131
 24
2824.506657257219
 34
0.0
100
AcDbRotatedDimension
1001
ACAD
1000
DSTYLE
1002
{
1070
   173
1070
     1
1070
   280
1070
     1
1070
   342
1005
0
1070
   343
1005
20
1070
   344
1005
1C9
1002
}
  0
DIMENSION
  5
1D9
330
2
100
AcDbEntity
  8
AM_5
100
AcDbDimension
  2
*D50
 10
5435.641319363133
 20
3085.661629932609
 30
0.0
 11
5499.829136622016
 21
3108.161629932609
 31
0.0
 71
     5
 42
15.00000000000182
  3
スタイル2
100
AcDbAlignedDimension
 13
5420.641319363131
 23
2824.506657257219
 33
0.0
 14
5435.641319363133
 24
2824.506657257219
 34
0.0
100
AcDbRotatedDimension
1001
ACAD
1000
DSTYLE
1002
{
1070
   173
1070
     1
1070
   342
1005
0
1070
   343
1005
1DA
1070
   344
1005
20
1002
}
  0
DIMENSION
  5
1EC
330
2
100
AcDbEntity
  8
AM_5
100
AcDbDimension
  2
*D44
 10
7061.614595228514
 20
3085.661629932609
 30
0.0
 11
6581.614595228514
 21
3108.161629932609
 31
0.0
 71
     5
 42
959.999999999999
  3
スタイル2
100
AcDbAlignedDimension
 13
6101.614595228515
 23
2736.301159147232
 33
0.0
 14
7061.614595228514
 24
2736.301159147232
 34
0.0
100
AcDbRotatedDimension
1001
ACAD
1000
DSTYLE
1002
{
1070
   279
1070
     1
1002
}
  0
LINE
  5
1F9
330
2
100
AcDbEntity
  8
A1枠
100
AcDbLine
 10
8050.000000000002
 20
159.9999999999988
 30
0.0
 11
8050.000000000002
 21
5690.0
 31
0.0
  0
DIMENSION
  5
1FA
330
2
100
AcDbEntity
  8
AM_5
100
AcDbDimension
  2
*D46
 10
7211.614595228515
 20
3173.161629932609
 30
0.0
 11
6581.614595228514
 21
3195.661629932609
 31
0.0
 71
     5
 42
1260.000000000002
  3
スタイル2
100
AcDbAlignedDimension
 13
5951.614595228513
 23
2824.50665725722
 33
0.0
 14
7211.614595228515
 24
2824.50665725722
 34
0.0
100
AcDbRotatedDimension
  0
DIMENSION
  5
207
330
2
100
AcDbEntity
  8
AM_5
100
AcDbDimension
  2
*D51
 10
5435.641319363133
 20
3173.161629932609
 30
0.0
 11
5501.42812139359
 21
3195.661629932609
 31
0.0
 71
     5
 42
20.0
  3
スタイル2
100
AcDbAlignedDimension
 13
5415.641319363134
 23
2824.011374870698
 33
0.0
 14
5435.641319363133
 24
2824.506657257219
 34
0.0
100
AcDbRotatedDimension
  0
LINE
  5
216
330
2
100
AcDbEntity
  8
AM_7
100
AcDbLine
 10
2116.225096231192
 20
5604.269644285849
 30
0.0
 11
2116.22509623119
 21
430.602787528729
 31
0.0
  0
DIMENSION
  5
217
330
2
100
AcDbEntity
  8
AM_5
100
AcDbDimension
  2
*D65
 10
5611.313859358236
 20
2178.899716737086
 30
0.0
 11
5588.813859358235
 21
2501.703186997154
 31
0.0
 70
    32
 71
     5
 42
645.6069405201337
  3
スタイル2
100
AcDbAlignedDimension
 13
5435.641319363133
 23
2824.506657257219
 33
0.0
 14
5435.641319363133
 24
2178.899716737086
 34
0.0
 50
90.0
100
AcDbRotatedDimension
1001
ACAD
1000
DSTYLE
1002
{
1070
   271
1070
     1
1070
   272
1070
     1
1002
}
  0
DIMENSION
  5
224
330
2
100
AcDbEntity
  8
AM_5
100
AcDbDimension
  2
*D66
 10
5698.813859358235
 20
2174.816501430273
 30
0.0
 11
5676.313859358234
 21
2499.661579343747
 31
0.0
 70
    32
 71
     5
 42
649.6901558269464
  3
スタイル2
100
AcDbAlignedDimension
 13
5435.641319363133
 23
2824.506657257219
 33
0.0
 14
5415.641319363134
 24
2174.816501430273
 34
0.0
 50
90.0
100
AcDbRotatedDimension
1001
ACAD
1000
DSTYLE
1002
{
1070
   271
1070
     1
1070
   272
1070
     1
1002
}
  0
LINE
  5
231
330
2
100
AcDbEntity
  8
0
  6
CENTERX2
100
AcDbLine
 10
5001.166610792461
 20
1794.689365819183
 30
0.0
 11
6001.166610792461
 21
1794.689365819183
 31
0.0
  0
MTEXT
  5
233
330
2
100
AcDbEntity
  8
0
  6
CENTERX2
100
AcDbMText
 10
5516.602446766174
 20
2079.156342326281
 30
0.0
 40
45.0
 41
0.0
 71
     5
 72
     5
  1
内板-1詳細図　センター
  7
スタイル１
 73
     1
 44
1.0
  0
DIMENSION
  5
234
330
2
100
AcDbEntity
  8
AM_5
100
AcDbDimension
  2
*D64
 10
5611.313859358236
 20
2174.816501430273
 30
0.0
 11
5588.813859358235
 21
2100.85711056733
 31
0.0
 70
    32
 71
     5
 42
4.083215306812689
  3
スタイル2
100
AcDbAlignedDimension
 13
5435.641319363133
 23
2178.899716737086
 33
0.0
 14
5415.641319363134
 24
2174.816501430273
 34
0.0
 50
90.0
100
AcDbRotatedDimension
1001
ACAD
1000
DSTYLE
1002
{
1070
   271
1070
     1
1070
   272
1070
     1
1002
}
  0
LINE
  5
243
330
2
100
AcDbEntity
  8
AM_5
 62
     2
100
AcDbLine
 10
2001.22509623114
 20
1032.538547075068
 30
0.0
 11
2001.225096230754
 21
430.602787528729
 31
0.0
  0
LINE
  5
244
330
2
100
AcDbEntity
  8
AM_5
 62
     2
380
     1
100
AcDbLine
 10
1980.760557494629
 20
537.759766747119
 30
0.0
 11
2001.225096230656
 21
540.9095860578617
 31
0.0
  0
LINE
  5
245
330
2
100
AcDbEntity
  8
AM_5
 62
     2
380
     1
100
AcDbLine
 10
2001.225096230656
 20
540.9095860578617
 30
0.0
 11
1981.92737611911
 21
548.4140317978963
 31
0.0
  0
LINE
  5
246
330
2
100
AcDbEntity
  8
AM_5
 62
     2
380
     1
100
AcDbLine
 10
1981.86264102482
 20
548.2453911097218
 30
0.0
 11
2001.225096230921
 21
540.90958605776
 31
0.0
  0
LINE
  5
247
330
2
100
AcDbEntity
  8
AM_5
 62
     2
380
     1
100
AcDbLine
 10
2001.225096230921
 20
540.90958605776
 30
0.0
 11
1980.788815601719
 21
537.5813520796273
 31
0.0
  0
LINE
  5
248
330
2
100
AcDbEntity
  8
AM_5
 62
     2
380
     1
100
AcDbLine
 10
2001.225096230899
 20
440.6027875286763
 30
0.0
 11
1980.788815601698
 21
437.2745535505446
 31
0.0
  0
LINE
  5
249
330
2
100
AcDbEntity
  8
AM_5
 62
     2
380
     1
100
AcDbLine
 10
1981.862641024799
 20
447.9385925806382
 30
0.0
 11
2001.225096230899
 21
440.6027875286763
 31
0.0
  0
LINE
  5
24A
330
2
100
AcDbEntity
  8
AM_5
 62
     2
380
     1
100
AcDbLine
 10
2001.225096214956
 20
641.1535838909294
 30
0.0
 11
1980.788815585755
 21
637.8253499127968
 31
0.0
  0
LINE
  5
24B
330
2
100
AcDbEntity
  8
AM_5
 62
     2
380
     1
100
AcDbLine
 10
1981.862641008855
 20
648.4893889428904
 30
0.0
 11
2001.225096214956
 21
641.1535838909294
 31
0.0
  0
LINE
  5
24C
330
2
100
AcDbEntity
  8
AM_5
 62
     2
380
     1
100
AcDbLine
 10
2001.225096214692
 20
641.1535838910313
 30
0.0
 11
1981.927376103146
 21
648.6580296310657
 31
0.0
  0
LINE
  5
24D
330
2
100
AcDbEntity
  8
AM_5
 62
     2
380
     1
100
AcDbLine
 10
1980.760557478665
 20
638.0037645802876
 30
0.0
 11
2001.225096214692
 21
641.1535838910313
 31
0.0
  0
LINE
  5
24E
330
2
100
AcDbEntity
  8
AM_5
 62
     2
380
     1
100
AcDbLine
 10
1980.760557494803
 20
738.2804309497714
 30
0.0
 11
2001.22509623083
 21
741.4302502605151
 31
0.0
  0
LINE
  5
24F
330
2
100
AcDbEntity
  8
AM_5
 62
     2
380
     1
100
AcDbLine
 10
2001.22509623083
 20
741.4302502605151
 30
0.0
 11
1981.927376119285
 21
748.9346960005495
 31
0.0
  0
LWPOLYLINE
  5
250
330
2
100
AcDbEntity
  8
AM_5
100
AcDbPolyline
 90
        2
 70
     0
 43
5.625
 10
2162.903154146961
 20
882.8464176641137
 10
2297.903154146961
 20
882.8464176641137
  0
LWPOLYLINE
  5
251
330
2
100
AcDbEntity
  8
AM_5
100
AcDbPolyline
 90
        3
 70
     0
 43
0.0
 10
2290.794060596608
 20
840.5602497287441
 10
2275.403154146961
 20
882.8464176641137
 10
2260.012247697289
 20
840.5602497287441
  0
LINE
  5
252
330
2
100
AcDbEntity
  8
AM_5
100
AcDbLine
 10
2275.403154146959
 20
882.8464176641137
 30
0.0
 11
2275.403154146959
 21
792.8464176641137
 31
0.0
  0
MTEXT
  5
253
330
2
100
AcDbEntity
  8
AM_5
100
AcDbMText
 10
2214.243865399388
 20
844.7047086465781
 30
0.0
 40
45.0
 41
0.0
 71
     5
 72
     5
  1
A
  7
MSゴシック
 73
     1
 44
1.0
  0
DIMENSION
  5
254
330
2
100
AcDbEntity
  8
AM_5
100
AcDbDimension
  2
*D40
 10
3847.948957551516
 20
2056.260259231279
 30
0.0
 11
3825.448957551516
 21
2206.260259231279
 31
0.0
 71
     5
 42
300.0
  3
スタイル2
100
AcDbAlignedDimension
 13
3847.948957551516
 23
2356.260259231279
 33
0.0
 14
3681.748382800619
 24
2056.260259231279
 34
0.0
 50
90.0
100
AcDbRotatedDimension
1001
ACAD
1000
DSTYLE
1002
{
1070
   279
1070
     1
1002
}
  0
DIMENSION
  5
260
330
2
100
AcDbEntity
  8
AM_5
100
AcDbDimension
  2
*D39
 10
3847.948957551516
 20
2356.260259231279
 30
0.0
 11
3825.448957551516
 21
2506.26025923128
 31
0.0
 71
     5
 42
300.0
  3
スタイル2
100
AcDbAlignedDimension
 13
3681.748382800619
 23
2656.260259231279
 33
0.0
 14
3847.948957551516
 24
2356.260259231279
 34
0.0
 50
90.0
100
AcDbRotatedDimension
  0
DIMENSION
  5
26C
330
2
100
AcDbEntity
  8
AM_5
100
AcDbDimension
  2
*D81
 10
3506.439301463861
 20
2608.911610021808
 30
0.0
 11
3719.234999270236
 21
2826.620588909293
 31
0.0
 70
    35
  1
143.2 diam.
 71
     5
 42
143.2000000000007
  3
スタイル2$3
100
AcDbDiametricDimension
 15
3613.857464137375
 25
2703.608908440752
 35
0.0
 40
0.0
  0
LINE
  5
278
330
2
100
AcDbEntity
  8
AM_0
100
AcDbLine
 10
3010.148382800218
 20
2991.26025923128
 30
0.0
 11
4095.148382800219
 21
2991.26025923128
 31
0.0
  0
LINE
  5
279
330
2
100
AcDbEntity
  8
AM_7
100
AcDbLine
 10
4195.148382800219
 20
2356.260259231279
 30
0.0
 11
2910.148382800218
 21
2356.260259231279
 31
0.0
  0
DIMENSION
  5
27A
330
2
100
AcDbEntity
  8
AM_5
100
AcDbDimension
  2
*D37
 10
4095.148382800219
 20
1548.499488075143
 30
0.0
 11
3827.648382800418
 21
1570.999488075143
 31
0.0
 71
     5
 42
534.9999999996007
  3
スタイル2
100
AcDbAlignedDimension
 13
3560.148382800619
 23
1934.66025923128
 33
0.0
 14
4095.148382800219
 24
1721.260259231279
 34
0.0
100
AcDbRotatedDimension
  0
MTEXT
  5
287
330
2
100
AcDbEntity
  8
AM_6
100
AcDbMText
 10
3783.260732654791
 20
1105.957994425367
 30
0.0
 40
45.0
 41
0.0
 71
     5
 72
     5
  1
A-A Cut View S=1/10
  7
スタイル１
 73
     1
 44
1.0
  0
LINE
  5
288
330
2
100
AcDbEntity
  8
AM_0
100
AcDbLine
 10
3010.148382800218
 20
1721.26025923128
 30
0.0
 11
4095.148382800219
 21
1721.26025923128
 31
0.0
  0
DIMENSION
  5
289
330
2
100
AcDbEntity
  8
AM_5
100
AcDbDimension
  2
*D38
 10
4095.148382800219
 20
1439.585742159881
 30
0.0
 11
3758.365836192671
 21
1462.085742159881
 31
0.0
 71
     5
 42
673.5650932150974
  3
スタイル2
100
AcDbAlignedDimension
 13
3421.583289585122
 23
1859.260259231279
 33
0.0
 14
4095.148382800219
 24
1721.26025923128
 34
0.0
100
AcDbRotatedDimension
  0
LINE
  5
296
330
2
100
AcDbEntity
  8
AM_6
100
AcDbLine
 10
3449.457693239647
 20
1072.243134432057
 30
0.0
 11
4113.650380039429
 21
1072.243134432057
 31
0.0
  0
DIMENSION
  5
297
330
2
100
AcDbEntity
  8
AM_5
100
AcDbDimension
  2
*D80
 10
3506.439301463862
 20
2008.911610021806
 30
0.0
 11
3719.234999270236
 21
2226.620588909294
 31
0.0
 70
    35
  1
143.2 diam.
 71
     5
 42
143.2000000000007
  3
スタイル2$3
100
AcDbDiametricDimension
 15
3613.857464137376
 25
2103.608908440752
 35
0.0
 40
0.0
  0
LINE
  5
2A3
330
2
100
AcDbEntity
  8
AM_0
100
AcDbLine
 10
3010.148382800218
 20
1721.260259231279
 30
0.0
 11
3010.148382800218
 21
2991.26025923128
 31
0.0
  0
LINE
  5
2A4
330
2
100
AcDbEntity
  8
AM_3
100
AcDbLine
 10
3018.148382800218
 20
1721.26025923128
 30
0.0
 11
3018.148382800218
 21
2991.26025923128
 31
0.0
  0
LINE
  5
2A5
330
2
100
AcDbEntity
  8
AM_7
100
AcDbLine
 10
3421.583289585122
 20
2709.260259231279
 30
0.0
 11
3421.583289585122
 21
2003.260259231279
 31
0.0
  0
DIMENSION
  5
2A6
330
2
100
AcDbEntity
  8
AM_5
100
AcDbDimension
  2
*D42
 10
3248.616687196265
 20
1926.260259231279
 30
0.0
 11
3226.116687196264
 21
2141.26025923128
 31
0.0
 71
     5
 42
430.0000000000002
  3
スタイル2
100
AcDbAlignedDimension
 13
3272.453765886743
 23
2356.260259231279
 33
0.0
 14
3354.583289585121
 24
1926.260259231279
 34
0.0
 50
90.0
100
AcDbRotatedDimension
1001
ACAD
1000
DSTYLE
1002
{
1070
   279
1070
     1
1002
}
  0
CIRCLE
  5
2B3
330
2
100
AcDbEntity
  8
AM_0
100
AcDbCircle
 10
3560.148382800619
 20
2056.260259231279
 30
0.0
 40
71.6
  0
LINE
  5
2B4
330
2
100
AcDbEntity
  8
AM_7
100
AcDbLine
 10
3560.148382800619
 20
2177.860259231279
 30
0.0
 11
3560.148382800619
 21
1934.66025923128
 31
0.0
  0
LINE
  5
2B5
330
2
100
AcDbEntity
  8
AM_0
100
AcDbLine
 10
2001.22509623114
 20
1042.538547075068
 30
0.0
 11
2001.22509623114
 21
1050.575788180141
 31
0.0
  0
LINE
  5
2C2
330
2
100
AcDbEntity
  8
AM_7
100
AcDbLine
 10
3354.583289585121
 20
1926.260259231279
 30
0.0
 11
3488.583289585121
 21
1926.260259231279
 31
0.0
  0
LINE
  5
2C3
330
2
100
AcDbEntity
  8
AM_7
100
AcDbLine
 10
3421.583289585122
 20
1993.260259231279
 30
0.0
 11
3421.583289585122
 21
1859.260259231279
 31
0.0
  0
CIRCLE
  5
2C4
330
2
100
AcDbEntity
  8
AM_0
100
AcDbCircle
 10
3421.583289585122
 20
1926.260259231279
 30
0.0
 40
17.0
  0
LINE
  5
2C5
330
2
100
AcDbEntity
  8
AM_7
100
AcDbLine
 10
3560.148382800619
 20
2777.860259231279
 30
0.0
 11
3560.148382800619
 21
2534.660259231279
 31
0.0
  0
DIMENSION
  5
2C6
330
2
100
AcDbEntity
  8
AM_5
100
AcDbDimension
  2
*D41
 10
3248.616687196265
 20
2356.260259231279
 30
0.0
 11
3226.116687196264
 21
2571.26025923128
 31
0.0
 71
     5
 42
430.0
  3
スタイル2
100
AcDbAlignedDimension
 13
3354.583289585121
 23
2786.260259231279
 33
0.0
 14
3272.453765886743
 24
2356.260259231279
 34
0.0
 50
90.0
100
AcDbRotatedDimension
  0
MTEXT
  5
2D3
330
2
100
AcDbEntity
  8
AM_5
100
AcDbMText
 10
2870.125637955923
 20
2367.386147281959
 30
0.0
 40
45.0
 41
0.0
 71
     5
 72
     5
  1
ｃ
  7
スタイル１
 73
     1
 44
1.0
  0
MTEXT
  5
2D4
330
2
100
AcDbEntity
  8
AM_5
100
AcDbMText
 10
2888.911986452851
 20
2357.434483198627
 30
0.0
 40
45.0
 41
0.0
 71
     5
 72
     5
  1
L
  7
スタイル１
 73
     1
 44
1.0
  0
LINE
  5
2D5
330
2
100
AcDbEntity
  8
AM_7
100
AcDbLine
 10
3560.148382800619
 20
2524.660259231279
 30
0.0
 11
3560.148382800619
 21
2187.860259231279
 31
0.0
  0
LINE
  5
2D6
330
2
100
AcDbEntity
  8
AM_7
100
AcDbLine
 10
3438.548382800618
 20
2056.260259231279
 30
0.0
 11
3681.748382800619
 21
2056.260259231279
 31
0.0
  0
LINE
  5
2D7
330
2
100
AcDbEntity
  8
AM_7
100
AcDbLine
 10
3421.583289585122
 20
2853.26025923128
 30
0.0
 11
3421.583289585122
 21
2719.260259231279
 31
0.0
  0
LINE
  5
2E4
330
2
100
AcDbEntity
  8
AM_7
100
AcDbLine
 10
3438.548382800618
 20
2656.260259231279
 30
0.0
 11
3681.748382800619
 21
2656.260259231279
 31
0.0
  0
LINE
  5
2E5
330
2
100
AcDbEntity
  8
AM_7
100
AcDbLine
 10
3354.583289585121
 20
2786.260259231279
 30
0.0
 11
3488.583289585121
 21
2786.260259231279
 31
0.0
  0
CIRCLE
  5
2E6
330
2
100
AcDbEntity
  8
AM_0
100
AcDbCircle
 10
3421.583289585122
 20
2786.260259231279
 30
0.0
 40
17.0
  0
CIRCLE
  5
2E7
330
2
100
AcDbEntity
  8
AM_0
100
AcDbCircle
 10
3560.148382800619
 20
2656.260259231279
 30
0.0
 40
71.6
  0
LINE
  5
2E8
330
2
100
AcDbEntity
  8
0
  6
CENTERX2
100
AcDbLine
 10
5501.166610792463
 20
1294.689365819184
 30
0.0
 11
5501.166610792463
 21
2294.689365819184
 31
0.0
  0
DIMENSION
  5
2E9
330
2
100
AcDbEntity
  8
AM_5
100
AcDbDimension
  2
*D36
 10
4321.285228267779
 20
1721.260259231279
 30
0.0
 11
4298.78522826778
 21
2356.26025923128
 31
0.0
 71
     5
 42
1270.0
  3
スタイル2
100
AcDbAlignedDimension
 13
4095.148382800219
 23
2991.26025923128
 33
0.0
 14
4095.148382800219
 24
1721.260259231279
 34
0.0
 50
90.0
100
AcDbRotatedDimension
  0
LINE
  5
2F6
330
2
100
AcDbEntity
  8
AM_0
100
AcDbLine
 10
4095.148382800219
 20
1721.260259231279
 30
0.0
 11
4095.148382800219
 21
2991.26025923128
 31
0.0
  0
DIMENSION
  5
2F7
330
2
100
AcDbEntity
  8
AM_5
100
AcDbDimension
  2
*D54
 10
5445.641319363133
 20
1668.289133333139
 30
0.0
 11
5499.524568094098
 21
1690.789133333139
 31
0.0
 71
     5
 42
6.0
  3
スタイル2
100
AcDbAlignedDimension
 13
5415.641319363134
 23
1481.15143219817
 33
0.0
 14
5445.641319363133
 24
1481.15143219817
 34
0.0
100
AcDbRotatedDimension
1001
ACAD
1000
DSTYLE
1002
{
1070
   144
1040
0.2
1002
}
  0
LWPOLYLINE
  5
313
330
2
100
AcDbEntity
  8
AM_0
100
AcDbPolyline
 90
        4
 70
     1
 43
0.0
 10
5415.641319363134
 20
1331.15143219817
 10
5445.641319363133
 20
1331.15143219817
 10
5445.641319363133
 20
1481.15143219817
 10
5415.641319363134
 20
1481.15143219817
  0
REGION
  5
314
330
2
100
AcDbEntity
  8
AM_2
100
AcDbModelerGeometry
 70
     1
  1
koo ln n o          
  1
h J1410(1 nl ^ \VL kqoqm QK mk K*: R>- ng njemneng mool 
  1
rn fqfffffffffffffffj:rooh n:rono 
  1
=0;& {rn {n {rn {rn |
  1
3*2/ {rn {rn {m {o |
  1
,7:33 {rn {rn {rn {l {rn {n |
  1
9><: {rn {rn {k {m {rn {j 90-(>-; ;0*=3: 0*+ |
  1
300/ {rn {rn {i {l |
  1
/3>1:r,*-9><: {rn jkmlqgjmginklnjfon mjkiqgjokfkmnfllgj o o o n n o o 90-(>-;@) V V V V |
  1
<0:;8: {rn {h {g {rn {f -:):-,:; {k {rn |
  1
<0:;8: {rn {no {i {rn {nn -:):-,:; {k {rn |
  1
<0:;8: {rn {i {nm {rn {nl -:):-,:; {k {rn |
  1
:;8: {rn {nk {nj {i {ni 90-(>-; |
  1
<0:;8: {rn {nm {h {rn {nh 90-(>-; {k {rn |
  1
:;8: {rn {ng {nk {h {nf 90-(>-; |
  1
<0:;8: {rn {g {no {rn {mo 90-(>-; {k {rn |
  1
:;8: {rn {nj {mn {g {mm 90-(>-; |
  1
):-+:' {rn {f {ml |
  1
):-+:' {rn {f {mk |
  1
,+->687+r<*-): {rn jkljqiknlnflilnlll mgmkqjoiijhmjhmnfi o o rn o V V |
  1
:;8: {rn {ng {mj {no {mi 90-(>-; |
  1
):-+:' {rn {nh {mh |
  1
,+->687+r<*-): {rn jkmoqiknlnflilnlnj mgmkqjoiijhmjhmnfi o n o o V V |
  1
:;8: {rn {mj {mn {nm {mg 90-(>-; |
  1
):-+:' {rn {nl {mf |
  1
:336/,:r<*-): {rn jjljqiknlnflilnlmk nilgqoihomjknhkghm o o o n jjo o o n V V |
  1
/061+ {rn jkljqiknlnflilnlll mgmkqjoiijhmjhmnfi o |
  1
/061+ {rn jkljqiknlnflilnlll mnhgqgffhnihlhogjl o |
  1
):-+:' {rn {mo {lo |
  1
:336/,:r<*-): {rn jjljqiknlnflilnlnj nilgqoihomjknhkghm o o o n nnfm o o n V V |
  1
/061+ {rn jkmoqiknlnflilnlnj mgmkqjoiijhmjhmnfi o |
  1
,+->687+r<*-): {rn jknjqiknlnflilnlll mgmkqonnlhkghoiff o o rn o V V |
  1
/061+ {rn jknjqiknlnflilnlll mnhkqgnijonklomhln o |
  1
/061+ {rn jknjqiknlnflilnlll mgmkqonnlhkghoiff o |
  0
LINE
  5
316
330
2
100
AcDbEntity
  8
AM_3
 48
0.2
100
AcDbLine
 10
5415.641319363134
 20
2348.301159147232
 30
0.0
 11
5435.641319363133
 21
2348.301159147232
 31
0.0
  0
LINE
  5
317
330
2
100
AcDbEntity
  8
AM_3
 48
0.2
100
AcDbLine
 10
5415.641319363134
 20
2382.301159147232
 30
0.0
 11
5435.641319363133
 21
2382.301159147232
 31
0.0
  0
LINE
  5
318
330
2
100
AcDbEntity
  8
AM_7
100
AcDbLine
 10
5343.974652696466
 20
2365.301159147232
 30
0.0
 11
5512.3079860298
 21
2365.301159147232
 31
0.0
  0
DIMENSION
  5
319
330
2
100
AcDbEntity
  8
AM_5
100
AcDbDimension
  2
*D52
 10
5332.391300983911
 20
2824.011374870698
 30
0.0
 11
5309.89130098391
 21
2746.942846951917
 31
0.0
 71
     5
 42
0.4952823865210121
  3
スタイル2
100
AcDbAlignedDimension
 13
5420.641319363131
 23
2824.506657257219
 33
0.0
 14
5415.641319363134
 24
2824.011374870698
 34
0.0
 50
90.0
100
AcDbRotatedDimension
  0
LINE
  5
328
330
2
100
AcDbEntity
  8
AM_3
 48
0.2
100
AcDbLine
 10
5415.641319363134
 20
2692.301159147232
 30
0.0
 11
5435.641319363133
 21
2692.301159147232
 31
0.0
  0
LINE
  5
329
330
2
100
AcDbEntity
  8
AM_3
 48
0.2
100
AcDbLine
 10
5415.641319363134
 20
2658.301159147232
 30
0.0
 11
5435.641319363133
 21
2658.301159147232
 31
0.0
  0
LINE
  5
32A
330
2
100
AcDbEntity
  8
AM_7
100
AcDbLine
 10
5343.974652696466
 20
2675.301159147232
 30
0.0
 11
5512.3079860298
 21
2675.301159147232
 31
0.0
  0
LWPOLYLINE
  5
32B
330
2
100
AcDbEntity
  8
A1枠
100
AcDbPolyline
 90
        4
 70
     1
 43
0.0
 10
7156.999997188532
 20
730.0
 10
7506.999997188533
 20
730.0
 10
7506.999997188533
 20
780.0
 10
7156.999997188532
 20
780.0
  0
LWPOLYLINE
  5
32C
330
2
100
AcDbEntity
  8
A1枠
100
AcDbPolyline
 90
        4
 70
     1
 43
0.0
 10
7156.999994377066
 20
530.0000000000011
 10
7506.999994377067
 20
530.0000000000011
 10
7506.999994377067
 20
580.0000000000011
 10
7156.999994377066
 20
580.0000000000011
  0
LWPOLYLINE
  5
32D
330
2
100
AcDbEntity
  8
A1枠
100
AcDbPolyline
 90
        4
 70
     1
 43
0.0
 10
7156.999997188534
 20
580.0
 10
7506.999997188533
 20
580.0
 10
7506.999997188533
 20
630.0
 10
7156.999997188534
 20
630.0
  0
LWPOLYLINE
  5
32E
330
2
100
AcDbEntity
  8
A1枠
100
AcDbPolyline
 90
        4
 70
     1
 43
0.0
 10
7156.999997188534
 20
480.0
 10
7506.999997188533
 20
480.0
 10
7506.999997188533
 20
530.0
 10
7156.999997188534
 20
530.0
  0
LWPOLYLINE
  5
32F
330
2
100
AcDbEntity
  8
A1枠
100
AcDbPolyline
 90
        4
 70
     1
 43
0.0
 10
7156.999997188534
 20
630.0
 10
7506.999997188533
 20
630.0
 10
7506.999997188533
 20
680.0
 10
7156.999997188534
 20
680.0
  0
MTEXT
  5
330
330
2
100
AcDbEntity
  8
A1枠
 62
     3
100
AcDbMText
 10
7318.999833333329
 20
454.9999999999998
 30
0.0
 40
25.0
 41
453.333
 71
     5
 72
     5
  1
Dimension
  7
表題
 73
     1
 44
1.0
  0
LWPOLYLINE
  5
331
330
2
100
AcDbEntity
  8
A1枠
100
AcDbPolyline
 90
        4
 70
     1
 43
0.0
 10
7156.999997188534
 20
680.0
 10
7506.999997188533
 20
680.0
 10
7506.999997188533
 20
730.0
 10
7156.999997188534
 20
730.0
  0
MTEXT
  5
332
330
2
100
AcDbEntity
  8
A1枠
 62
     3
100
AcDbMText
 10
7325.000000000009
 20
324.9999999999988
 30
0.0
 40
25.0
 41
150.0
 71
     5
 72
     5
  1
Name\PType
  7
表題
 73
     1
 44
1.0
  0
MTEXT
  5
333
330
2
100
AcDbEntity
  8
A1枠
 62
     3
100
AcDbMText
 10
7325.000000000009
 20
214.9999999999988
 30
0.0
 40
25.0
 41
150.0
 71
     5
 72
     5
  1
Drawing\PNumber
  7
表題
 73
     1
 44
1.0
  0
MTEXT
  5
334
330
2
100
AcDbEntity
  8
A1枠
 62
     3
100
AcDbMText
 10
7325.000000000009
 20
406.8999999999993
 30
0.0
 40
25.0
 41
150.0
 71
     5
 72
     5
  1
Date
  7
表題
 73
     1
 44
1.0
  0
LINE
  5
335
330
2
100
AcDbEntity
  8
A1枠
100
AcDbLine
 10
6406.999997188541
 20
530.0000000000011
 30
0.0
 11
8049.999997188534
 21
530.0
 31
0.0
  0
LINE
  5
336
330
2
100
AcDbEntity
  8
A1枠
100
AcDbLine
 10
6406.999994377066
 20
530.0000000000014
 30
0.0
 11
8046.999994377065
 21
530.0000000000014
 31
0.0
  0
LINE
  5
337
330
2
100
AcDbEntity
  8
A1枠
100
AcDbLine
 10
6406.999997188534
 20
480.0000000000002
 30
0.0
 11
8046.999997188533
 21
480.0000000000002
 31
0.0
  0
LINE
  5
338
330
2
100
AcDbEntity
  8
A1枠
100
AcDbLine
 10
6407.000000000008
 20
480.0
 30
0.0
 11
8050.000000000002
 21
479.9999999999989
 31
0.0
  0
LINE
  5
339
330
2
100
AcDbEntity
  8
A1枠
100
AcDbLine
 10
6407.000000000008
 20
270.0
 30
0.0
 11
8050.000000000002
 21
269.9999999999988
 31
0.0
  0
LINE
  5
33A
330
2
100
AcDbEntity
  8
A1枠
100
AcDbLine
 10
8050.000000000002
 20
379.9999999999988
 30
0.0
 11
6407.000000000008
 21
380.0
 31
0.0
  0
LINE
  5
33B
330
2
100
AcDbEntity
  8
A1枠
100
AcDbLine
 10
6407.000000000008
 20
430.0
 30
0.0
 11
8050.000000000002
 21
429.9999999999989
 31
0.0
  0
LINE
  5
33C
330
2
100
AcDbEntity
  8
A1枠
100
AcDbLine
 10
6407.000000000008
 20
160.0
 30
0.0
 11
8050.000000000002
 21
159.9999999999988
 31
0.0
  0
LWPOLYLINE
  5
33D
330
2
100
AcDbEntity
  8
A1枠
100
AcDbPolyline
 90
        4
 70
     1
 43
0.0
 10
6406.999997188534
 20
730.0
 10
6506.999997188533
 20
730.0
 10
6506.999997188533
 20
780.0
 10
6406.999997188534
 20
780.0
  0
LWPOLYLINE
  5
33E
330
2
100
AcDbEntity
  8
A1枠
100
AcDbPolyline
 90
        4
 70
     1
 43
0.0
 10
6406.999994377066
 20
530.0000000000011
 10
6506.999994377067
 20
530.0000000000011
 10
6506.999994377067
 20
580.0000000000011
 10
6406.999994377066
 20
580.0000000000011
  0
ATTDEF
  5
33F
330
2
100
AcDbEntity
  8
A1枠
100
AcDbText
 10
6422.28089325347
 20
540.0000000000013
 30
0.0
 40
30.0
  1

  7
表題
 72
     2
 11
6486.999994377066
 21
555.0000000000014
 31
0.0
100
AcDbAttributeDefinition
  3
品番
  2
1-2
 70
     0
 74
     2
  0
LWPOLYLINE
  5
340
330
2
100
AcDbEntity
  8
A1枠
100
AcDbPolyline
 90
        4
 70
     1
 43
0.0
 10
6406.999997188534
 20
630.0
 10
6506.999997188533
 20
630.0
 10
6506.999997188533
 20
680.0
 10
6406.999997188534
 20
680.0
  0
ATTDEF
  5
341
330
2
100
AcDbEntity
  8
A1枠
100
AcDbText
 10
6422.280896064939
 20
640.0000000000002
 30
0.0
 40
30.0
  1

  7
表題
 72
     2
 11
6486.999997188533
 21
655.0000000000002
 31
0.0
100
AcDbAttributeDefinition
  3
品番
  2
2-2
 70
     0
 74
     2
  0
ATTDEF
  5
342
330
2
100
AcDbEntity
  8
A1枠
100
AcDbText
 10
6422.280896064939
 20
490.0000000000002
 30
0.0
 40
30.0
  1

  7
表題
 72
     2
 11
6486.999997188533
 21
505.0000000000002
 31
0.0
100
AcDbAttributeDefinition
  3
品番
  2
1-1
 70
     0
 74
     2
  0
LWPOLYLINE
  5
343
330
2
100
AcDbEntity
  8
A1枠
100
AcDbPolyline
 90
        4
 70
     1
 43
0.0
 10
6406.999997188534
 20
480.0
 10
6506.999997188533
 20
480.0
 10
6506.999997188533
 20
530.0
 10
6406.999997188534
 20
530.0
  0
MTEXT
  5
344
330
2
100
AcDbEntity
  8
A1枠
 62
     3
100
AcDbMText
 10
6457.000000000007
 20
454.9999999999998
 30
0.0
 40
25.0
 41
100.0
 71
     5
 72
     5
  1
No.
  7
表題
 73
     1
 44
1.0
  0
LWPOLYLINE
  5
345
330
2
100
AcDbEntity
  8
A1枠
100
AcDbPolyline
 90
        4
 70
     1
 43
0.0
 10
6406.999997188534
 20
580.0
 10
6506.999997188533
 20
580.0
 10
6506.999997188533
 20
630.0
 10
6406.999997188534
 20
630.0
  0
ATTDEF
  5
346
330
2
100
AcDbEntity
  8
A1枠
100
AcDbText
 10
6422.280896064939
 20
590.0000000000002
 30
0.0
 40
30.0
  1

  7
表題
 72
     2
 11
6486.999997188533
 21
605.0000000000002
 31
0.0
100
AcDbAttributeDefinition
  3
品番
  2
2-1
 70
     0
 74
     2
  0
LWPOLYLINE
  5
347
330
2
100
AcDbEntity
  8
A1枠
100
AcDbPolyline
 90
        4
 70
     1
 43
0.0
 10
6406.999997188534
 20
680.0
 10
6506.999997188533
 20
680.0
 10
6506.999997188533
 20
730.0
 10
6406.999997188534
 20
730.0
  0
MTEXT
  5
348
330
2
100
AcDbEntity
  8
A1枠
 62
     3
100
AcDbMText
 10
6472.000000000008
 20
404.9999999999998
 30
0.0
 40
15.0
 41
130.0
 71
     5
 72
     5
  1
Approved by
  7
表題
 73
     1
 44
1.0
  0
LINE
  5
349
330
2
100
AcDbEntity
  8
A1枠
100
AcDbLine
 10
6407.000000000008
 20
160.0
 30
0.0
 11
6407.000000000008
 21
430.0
 31
0.0
  0
LINE
  5
34A
330
2
100
AcDbEntity
  8
A1枠
100
AcDbLine
 10
6407.000000000008
 20
480.0
 30
0.0
 11
6407.000000000008
 21
430.0
 31
0.0
  0
MTEXT
  5
34B
330
2
100
AcDbEntity
  8
A1枠
 62
     3
100
AcDbMText
 10
7175.000000000008
 20
406.8999999999993
 30
0.0
 40
25.0
 41
150.0
 71
     5
 72
     5
  1
Scale
  7
表題
 73
     1
 44
1.0
  0
LINE
  5
34C
330
2
100
AcDbEntity
  8
A1枠
100
AcDbLine
 10
7100.000000000001
 20
429.9999999999989
 30
0.0
 11
7100.000000000001
 21
269.9999999999988
 31
0.0
  0
LINE
  5
34D
330
2
100
AcDbEntity
  8
A1枠
100
AcDbLine
 10
7250.000000000001
 20
429.9999999999989
 30
0.0
 11
7250.000000000001
 21
159.9999999999988
 31
0.0
  0
MTEXT
  5
34E
330
2
100
AcDbEntity
  8
A1枠
 62
     3
100
AcDbMText
 10
6905.000000000008
 20
404.9999999999988
 30
0.0
 40
25.0
 41
130.0
 71
     5
 72
     5
  1
Design
  7
表題
 73
     1
 44
1.0
  0
LINE
  5
34F
330
2
100
AcDbEntity
  8
A1枠
100
AcDbLine
 10
6970.000000000002
 20
429.9999999999989
 30
0.0
 11
6970.000000000002
 21
269.9999999999988
 31
0.0
  0
LINE
  5
350
330
2
100
AcDbEntity
  8
A1枠
100
AcDbLine
 10
6840.0
 20
429.9999999999989
 30
0.0
 11
6840.0
 21
269.9999999999988
 31
0.0
  0
LINE
  5
351
330
2
100
AcDbEntity
  8
A1枠
100
AcDbLine
 10
6530.000000000001
 20
430.0
 30
0.0
 11
6530.000000000001
 21
270.0
 31
0.0
  0
MTEXT
  5
352
330
2
100
AcDbEntity
  8
A1枠
 62
     3
100
AcDbMText
 10
6685.000000000008
 20
404.9999999999998
 30
0.0
 40
25.0
 41
310.0
 71
     5
 72
     5
  1
Judge
  7
表題
 73
     1
 44
1.0
  0
MTEXT
  5
353
330
2
100
AcDbEntity
  8
A1枠
 62
     3
100
AcDbMText
 10
7035.000000000008
 20
404.9999999999988
 30
0.0
 40
25.0
 41
130.0
 71
     5
 72
     5
  1
Drawing
  7
表題
 73
     1
 44
1.0
  0
MTEXT
  5
354
330
2
100
AcDbEntity
  8
A1枠
 62
     3
100
AcDbMText
 10
6898.263984295431
 20
324.6259956274204
 30
0.0
 40
20.0
 41
0.0
 71
     5
 72
     5
  1
Urakawa
  7
表題
 73
     1
 44
1.0
  0
MTEXT
  5
355
330
2
100
AcDbEntity
  8
A1枠
 62
     3
100
AcDbMText
 10
6449.60622546392
 20
214.9999999999988
 30
0.0
 40
35.0
 41
0.0
 71
     4
 72
     5
  1
大陽東洋酸素株式会社
  7
大陽東洋酸素
 73
     1
 44
1.0
  0
MTEXT
  5
357
330
2
100
AcDbEntity
  8
A1枠
 62
     3
100
AcDbMText
 10
6465.263984295432
 20
324.6259956274213
 30
0.0
 40
20.0
 41
0.0
 71
     5
 72
     5
  1
Kamioka
  7
表題
 73
     1
 44
1.0
  0
HATCH
  5
358
330
2
100
AcDbEntity
  8
A1枠
100
AcDbHatch
 10
0.0
 20
0.0
 30
0.0
210
0.0
220
0.0
230
1.0
  2
SOLID
 70
     1
 71
     0
 91
        3
 92
        5
 93
        1
 72
     4
 94
        3
 73
     0
 74
     0
 95
       36
 96
       32
 40
0.0
 40
0.0
 40
0.0
 40
0.0
 40
0.5883166331382988
 40
1.044054392814925
 40
1.80690955170025
 40
3.636128202933312
 40
4.761041426817341
 40
5.32376724630582
 40
5.496244357661193
 40
5.760920812099318
 40
6.482162802078521
 40
7.033164362538165
 40
7.60229327212658
 40
8.246625936795398
 40
9.147019221933327
 40
10.62065156322797
 40
11.40758064228761
 40
12.99540565581377
 40
14.29781240575261
 40
15.17937101280218
 40
16.32278793075024
 40
17.07088451630366
 40
17.59680358761074
 40
18.31113908322397
 40
18.53573797647749
 40
18.82104064963364
 40
19.36229386539549
 40
20.26438382887941
 40
20.80952202408279
 40
21.24999366457222
 40
21.74937437233119
 40
21.74937437233119
 40
21.74937437233119
 40
21.74937437233119
 10
7150.823287027037
 20
229.8793842335697
 10
7152.186607354547
 20
231.5747800650385
 10
7154.606019787571
 20
234.5835093201737
 10
7161.037490937082
 20
232.712853378214
 10
7169.782187847473
 20
228.2348412443214
 10
7180.035013634647
 20
220.1421224909543
 10
7184.960546345749
 20
209.2586629766599
 10
7178.512022946984
 20
200.8341263070021
 10
7183.211670691388
 20
200.7905684840959
 10
7181.114201564539
 20
196.1537788910725
 10
7176.611828127069
 20
188.700862075342
 10
7184.300645153148
 20
195.1621288955746
 10
7190.163374031524
 20
191.989268352029
 10
7195.339016931794
 20
198.4738587642084
 10
7204.757306295412
 20
202.3719563521533
 10
7207.853534869421
 20
213.7421627460087
 10
7210.159578483064
 20
226.3839655724448
 10
7204.3099675707
 20
238.0602098129991
 10
7197.458946872569
 20
248.6177987072212
 10
7187.755949646883
 20
254.7549284057138
 10
7177.783444198453
 20
254.6685452747267
 10
7170.922617442304
 20
254.8714373496729
 10
7161.879574515167
 20
247.9107372098121
 10
7171.899124148747
 20
253.7364419038883
 10
7173.819438085667
 20
247.936642109277
 10
7168.781620460032
 20
249.2614100513626
 10
7164.769569814912
 20
245.1561807106379
 10
7156.912652916822
 20
244.7172094614568
 10
7154.426744902835
 20
238.4623768896569
 10
7150.572499834854
 20
234.9505119241964
 10
7150.736269649955
 20
231.6389486937594
 10
7150.823287027037
 20
229.8793842335697
 97
        0
 92
        7
 72
     1
 73
     1
 93
        2
 10
7137.459482581582
 20
208.5739030218348
 42
1.0
 10
7170.82120212439
 20
208.5739030218348
 42
1.0
 97
        0
 92
        5
 93
        1
 72
     4
 94
        3
 73
     0
 74
     0
 95
       41
 96
       37
 40
0.0
 40
0.0
 40
0.0
 40
0.0
 40
0.7582974158655653
 40
0.9306492898365002
 40
1.501039628747242
 40
1.852994756812246
 40
2.352376184237327
 40
2.71989720717723
 40
3.313609934625834
 40
3.881756293052878
 40
4.136909751011256
 40
4.730542777628725
 40
5.157636486979217
 40
5.443717701716619
 40
5.765725874223739
 40
6.148455927017043
 40
6.523046154425332
 40
7.092627838797694
 40
7.587320207969541
 40
7.782690675215876
 40
8.124195500635968
 40
8.60001591523784
 40
8.855009533669605
 40
9.321645285438874
 40
9.915277966111492
 40
10.5203439637128
 40
10.95500762142157
 40
11.12581724692269
 40
11.49333826986259
 40
11.99271969728756
 40
12.37222375185835
 40
12.67996993698242
 40
12.87086566202081
 40
13.13126583532389
 40
13.38739373323697
 40
13.48208503395095
 40
13.48208503395095
 40
13.48208503395095
 40
13.48208503395095
 10
7122.865308676127
 20
224.9081035973329
 10
7120.282606542642
 20
223.7342147436618
 10
7117.112887305726
 20
222.2935150852451
 10
7116.433638585623
 20
217.0232371165945
 10
7111.95240108738
 20
215.7983844108037
 10
7110.748012646779
 20
210.8817677415552
 10
7110.936815053626
 20
206.859693944242
 10
7109.069115244036
 20
202.1352181510317
 10
7109.712153385983
 20
197.4667920966428
 10
7107.507178912733
 20
191.2054060619182
 10
7112.90293495547
 20
190.2584262459847
 10
7115.741836006311
 20
187.0974341077333
 10
7120.892958026708
 20
186.9648354456428
 10
7122.076004457493
 20
183.3558419687176
 10
7122.344290835588
 20
179.8991716382295
 10
7126.579241080378
 20
178.2780516991376
 10
7130.469211651996
 20
181.2047032509897
 10
7135.420349651884
 20
178.4914280381515
 10
7138.699681004242
 20
176.7743290524538
 10
7143.370248589848
 20
177.4707006327032
 10
7138.671119628075
 20
180.8683952889994
 10
7140.210525395561
 20
184.3576853213951
 10
7138.682541564697
 20
188.492341851376
 10
7133.89720674672
 20
189.2907730422191
 10
7128.776519218861
 20
191.8042217587324
 10
7126.258707213951
 20
196.7847502277961
 10
7125.033214001182
 20
200.9688319596441
 10
7121.815187626497
 20
202.3191953546154
 10
7121.496211870639
 20
206.3646298314804
 10
7122.264256586024
 20
210.2844010608021
 10
7122.227607126473
 20
214.1962384772785
 10
7122.896294313753
 20
217.3395899598997
 10
7121.101097244981
 20
219.3040481646037
 10
7120.98952394291
 20
222.0326839673041
 10
7123.010980579632
 20
223.3728220794517
 10
7122.89627059966
 20
224.58178625104
 10
7122.865308676127
 20
224.9081035973329
 97
        0
 75
     0
 76
     1
 47
1.666295372170839
 98
        3
 10
7185.444805947213
 20
233.2137802961212
 10
7160.437061352926
 20
211.5519388363797
 10
7118.757515350758
 20
199.8878727325925
  0
SPLINE
  5
359
330
2
100
AcDbEntity
  8
A1枠
 48
5.0
100
AcDbSpline
210
0.0
220
0.0
230
1.0
 70
    11
 71
     3
 72
    41
 73
    37
 74
    35
 42
0.0000000001
 43
0.0000000001
 44
0.0000000001
 40
0.0
 40
0.0
 40
0.0
 40
0.0
 40
7.582974158666308
 40
9.306492898374877
 40
15.01039628748381
 40
18.52994756813547
 40
23.52376184238709
 40
27.19897207178093
 40
33.1360993462674
 40
38.81756293053851
 40
41.36909751013226
 40
47.30542777630205
 40
51.57636486981484
 40
54.43717701718321
 40
57.65725874225993
 40
61.48455927017676
 40
65.23046154426641
 40
70.92627838798286
 40
75.87320207972236
 40
77.82690675216277
 40
81.24195500635037
 40
86.00015915237019
 40
88.55009533668802
 40
93.21645285439041
 40
99.15277966111203
 40
105.2034396371256
 40
109.5500762142175
 40
111.2581724692195
 40
114.9333826986199
 40
119.9271969728706
 40
123.7222375185786
 40
126.7996993698191
 40
128.7086566202019
 40
131.3126583532325
 40
133.8739373323654
 40
134.8208503395056
 40
134.8208503395056
 40
134.8208503395056
 40
134.8208503395056
 10
7122.865308676127
 20
224.9081035973329
 30
0.0
 10
7120.282606542642
 20
223.7342147436641
 30
0.0
 10
7117.11288730571
 20
222.2935150852506
 30
0.0
 10
7116.433638585644
 20
217.0232371165929
 30
0.0
 10
7111.95240108737
 20
215.7983844108033
 30
0.0
 10
7110.748012646773
 20
210.8817677415557
 30
0.0
 10
7110.936815053597
 20
206.8596939442467
 30
0.0
 10
7109.069115244064
 20
202.1352181510262
 30
0.0
 10
7109.712153385977
 20
197.4667920966455
 30
0.0
 10
7107.507178912723
 20
191.2054060619119
 30
0.0
 10
7112.902934955475
 20
190.2584262459916
 30
0.0
 10
7115.741836006312
 20
187.0974341077273
 30
0.0
 10
7120.892958026715
 20
186.9648354456505
 30
0.0
 10
7122.076004457475
 20
183.3558419687103
 30
0.0
 10
7122.344290835616
 20
179.8991716382387
 30
0.0
 10
7126.579241080377
 20
178.2780516991362
 30
0.0
 10
7130.469211651991
 20
181.2047032509896
 30
0.0
 10
7135.420349651875
 20
178.4914280381473
 30
0.0
 10
7138.699681004252
 20
176.7743290524502
 30
0.0
 10
7143.370248589838
 20
177.4707006327083
 30
0.0
 10
7138.671119628092
 20
180.8683952890098
 30
0.0
 10
7140.21052539557
 20
184.3576853213922
 30
0.0
 10
7138.682541564715
 20
188.4923418513801
 30
0.0
 10
7133.897206746731
 20
189.2907730422136
 30
0.0
 10
7128.776519218854
 20
191.8042217587346
 30
0.0
 10
7126.258707213965
 20
196.784750227801
 30
0.0
 10
7125.033214001176
 20
200.968831959637
 30
0.0
 10
7121.815187626495
 20
202.3191953546234
 30
0.0
 10
7121.496211870634
 20
206.3646298314779
 30
0.0
 10
7122.264256586037
 20
210.2844010608011
 30
0.0
 10
7122.227607126493
 20
214.1962384772785
 30
0.0
 10
7122.896294313777
 20
217.3395899598986
 30
0.0
 10
7121.101097244991
 20
219.3040481646046
 30
0.0
 10
7120.989523942933
 20
222.0326839673055
 30
0.0
 10
7123.010980579647
 20
223.3728220794507
 30
0.0
 10
7122.896270599678
 20
224.5817862510405
 30
0.0
 10
7122.865308676127
 20
224.9081035973329
 30
0.0
 11
7122.865308676127
 21
224.9081035973329
 31
0.0
 11
7116.942004874736
 21
220.173553020201
 31
0.0
 11
7116.468137972036
 21
218.5164570650274
 31
0.0
 11
7112.203361833635
 21
214.728819495034
 31
0.0
 11
7111.018701073358
 21
211.4146348139708
 31
0.0
 11
7110.544834170645
 21
206.4433541777332
 31
0.0
 11
7109.59711335823
 21
202.8924394375633
 31
0.0
 11
7109.123246455514
 21
196.9742530234696
 31
0.0
 11
7109.123246455514
 21
191.2927894391985
 31
0.0
 11
7111.492567976071
 21
190.3458764320591
 31
0.0
 11
7116.705077919871
 21
187.5051446399236
 31
0.0
 11
7120.732914110435
 21
186.0847787438558
 31
0.0
 11
7121.9175748707
 21
183.4807770108261
 31
0.0
 11
7122.865308676127
 21
180.4033223888661
 31
0.0
 11
7126.419290956933
 21
178.9829564927993
 31
0.0
 11
7129.973273237768
 21
180.1665923297612
 31
0.0
 11
7135.422710136431
 21
178.5094963745884
 31
0.0
 11
7140.161340184576
 21
177.0891304785207
 31
0.0
 11
7142.056807795373
 21
177.5625905967306
 31
0.0
 11
7140.161340184576
 21
180.4033223888661
 31
0.0
 11
7139.68748627483
 21
185.1378729659979
 31
0.0
 11
7138.739752469418
 21
187.5051446399236
 31
0.0
 11
7134.474976331019
 21
189.3989706542013
 31
0.0
 11
7129.262466387221
 21
192.2396952170563
 31
0.0
 11
7126.182351009099
 21
197.447705912398
 31
0.0
 11
7124.049969436376
 21
201.2353434823915
 31
0.0
 11
7122.628368728278
 21
202.1822564895298
 31
0.0
 11
7121.680647915834
 21
205.7331712296988
 31
0.0
 11
7122.154514818548
 21
210.7044518659356
 31
0.0
 11
7122.391441773413
 21
214.4920894359291
 31
0.0
 11
7122.391441773413
 21
217.5695512871695
 31
0.0
 11
7121.443720960984
 21
219.2266400130609
 31
0.0
 11
7121.443720960984
 21
221.8306417460914
 31
0.0
 11
7122.865308676127
 21
223.9611905901927
 31
0.0
 11
7122.865308676127
 21
224.9081035973329
 31
0.0
  0
MTEXT
  5
35A
330
2
100
AcDbEntity
  8
A1枠
 62
     3
100
AcDbMText
 10
7175.000000000008
 20
326.8999999999994
 30
0.0
 40
25.0
 41
150.0
 71
     5
 72
     5
  1
1/10\P1/2,1/1
  7
表題
 73
     1
 44
1.0
  0
ARC
  5
35B
330
2
100
AcDbEntity
  8
A1枠
100
AcDbCircle
 10
7039.194626795508
 20
218.0398406238043
 30
0.0
 40
8.75
100
AcDbArc
 50
21.80140948635242
 51
90.0
  0
LINE
  5
35C
330
2
100
AcDbEntity
  8
A1枠
100
AcDbLine
 10
7047.318797840763
 20
221.2895090419022
 30
0.0
 11
7056.918532575238
 21
197.2901722057054
 31
0.0
  0
ARC
  5
35D
330
2
100
AcDbEntity
  8
A1枠
100
AcDbCircle
 10
7042.694626795512
 20
225.0398406238037
 30
0.0
 40
8.75
100
AcDbArc
 50
21.80140948635242
 51
90.0
  0
MTEXT
  5
35E
330
2
100
AcDbEntity
  8
A1枠
 62
     3
100
AcDbMText
 10
7028.263984295431
 20
324.6259956274204
 30
0.0
 40
20.0
 41
0.0
 71
     5
 72
     5
  1
Sudo
  7
表題
 73
     1
 44
1.0
  0
HATCH
  5
35F
330
2
100
AcDbEntity
  8
A1枠
100
AcDbHatch
 10
0.0
 20
0.0
 30
0.0
210
0.0
220
0.0
230
1.0
  2
SOLID
 70
     1
 71
     0
 91
        4
 92
        7
 72
     1
 73
     1
 93
       20
 10
6933.057126795517
 20
216.2898406238034
 42
0.0
 10
6916.138448825901
 20
216.2898406238034
 42
-0.3669553196555314
 10
6912.685411121545
 20
219.218412052375
 42
-0.0821840173641001
 10
6912.685411121529
 20
223.8612691952318
 42
-0.3669553196554433
 10
6916.138448825901
 20
226.7898406238043
 42
0.0
 10
6943.994626795518
 20
226.7898406238043
 42
0.0
 10
6943.994626795518
 20
233.7898406238034
 42
0.0
 10
6916.432126795517
 20
233.7898406238034
 42
0.2769839649484354
 10
6907.167420913153
 20
228.2310170943926
 42
0.2499999999999837
 10
6907.167420913153
 20
214.8486641532169
 42
0.2769839649484511
 10
6916.432126795517
 20
209.2898406238043
 42
0.0
 10
6933.350804765121
 20
209.2898406238043
 42
-0.3669553196555126
 10
6936.80384246949
 20
206.3612691952319
 42
-0.0821840173640942
 10
6936.80384246949
 20
201.718412052375
 42
-0.3669553196554584
 10
6933.350804765121
 20
198.7898406238034
 42
0.0
 10
6905.494626795517
 20
198.7898406238034
 42
0.0
 10
6905.494626795517
 20
191.7898406238043
 42
0.0
 10
6933.057126795517
 20
191.7898406238043
 42
0.2769839649484323
 10
6942.321832677866
 20
197.3486641532151
 42
0.2499999999999991
 10
6942.321832677866
 20
210.7310170943926
 42
0.2769839649484371
 97
        0
 92
        7
 72
     1
 73
     1
 93
       20
 10
6952.744626795517
 20
218.0398406238043
 42
0.4142135623731131
 10
6947.494626795531
 20
212.7898406238034
 42
0.0
 10
6947.494626795531
 20
197.0398406238043
 42
0.4142135623730969
 10
6952.744626795517
 20
191.7898406238043
 42
0.0
 10
6973.744626795532
 20
191.7898406238043
 42
0.0
 10
6973.744626795532
 20
198.7898406238034
 42
0.0
 10
6959.744626795504
 20
198.7898406238034
 42
-0.4142135623731128
 10
6954.494626795518
 20
204.0398406238034
 42
0.0
 10
6954.494626795518
 20
205.7898406238043
 42
-0.4142135623730971
 10
6959.744626795504
 20
211.0398406238043
 42
0.0
 10
6978.994626795517
 20
211.0398406238043
 42
0.0
 10
6978.994626795517
 20
191.7898406238043
 42
0.0
 10
6985.994626795502
 20
191.7898406238043
 42
0.0
 10
6985.994626795502
 20
225.0398406238034
 42
0.4142135623730951
 10
6977.244626795503
 20
233.7898406238034
 42
0.0
 10
6947.494626795531
 20
233.7898406238034
 42
0.0
 10
6947.494626795531
 20
226.7898406238043
 42
0.0
 10
6973.744626795532
 20
226.7898406238043
 42
-0.4142135623731129
 10
6978.994626795517
 20
221.5398406238034
 42
0.0
 10
6978.994626795517
 20
218.0398406238043
 42
0.0
 97
        0
 92
        7
 72
     1
 73
     1
 93
       20
 10
6994.744626795503
 20
218.0398406238034
 42
0.4142135623731131
 10
6989.494626795518
 20
212.7898406238034
 42
0.0
 10
6989.494626795518
 20
197.0398406238043
 42
0.4142135623730969
 10
6994.744626795503
 20
191.7898406238043
 42
0.0
 10
7015.744626795518
 20
191.7898406238043
 42
0.0
 10
7015.744626795518
 20
198.7898406238034
 42
0.0
 10
7001.744626795518
 20
198.7898406238034
 42
-0.4142135623730811
 10
6996.494626795517
 20
204.0398406238034
 42
0.0
 10
6996.494626795517
 20
205.7898406238043
 42
-0.414213562373096
 10
7001.744626795518
 20
211.0398406238043
 42
0.0
 10
7020.994626795503
 20
211.0398406238043
 42
0.0
 10
7020.994626795503
 20
191.7898406238043
 42
0.0
 10
7027.994626795518
 20
191.7898406238043
 42
0.0
 10
7027.994626795518
 20
225.0398406238034
 42
0.4142135623730951
 10
7019.244626795518
 20
233.7898406238034
 42
0.0
 10
6989.494626795518
 20
233.7898406238034
 42
0.0
 10
6989.494626795518
 20
226.7898406238034
 42
0.0
 10
7015.744626795518
 20
226.7898406238034
 42
-0.4142135623731129
 10
7020.994626795503
 20
221.5398406238034
 42
0.0
 10
7020.994626795503
 20
218.0398406238034
 42
0.0
 97
        0
 92
        7
 72
     1
 73
     1
 93
       16
 10
7038.494626795503
 20
226.7898406238034
 42
0.0
 10
7039.194626795515
 20
226.7898406238034
 42
-0.306678441558875
 10
7047.318797840759
 20
221.2895090419022
 42
0.0
 10
7056.918532575242
 20
197.2901722057056
 42
0.3066784415588886
 10
7065.042703620486
 20
191.7898406238034
 42
0.0
 10
7076.242703620484
 20
191.7898406238043
 42
0.0
 10
7076.242703620484
 20
233.7898406238034
 42
0.0
 10
7069.242703620469
 20
233.7898406238034
 42
0.0
 10
7069.242703620469
 20
198.7898406238034
 42
0.0
 10
7068.542703620487
 20
198.7898406238034
 42
-0.3066784415588917
 10
7060.418532575241
 20
204.2901722057047
 42
0.0
 10
7050.818797840775
 20
228.2895090419031
 42
0.3066784415588832
 10
7042.694626795515
 20
233.7898406238034
 42
0.0
 10
7031.494626795518
 20
233.7898406238034
 42
0.0
 10
7031.494626795518
 20
191.7898406238043
 42
0.0
 10
7038.494626795503
 20
191.7898406238043
 42
0.0
 97
        0
 75
     0
 76
     1
 47
0.0756444689632718
 98
        4
 10
6927.446372667628
 20
213.8655252895785
 10
6957.1255328825
 20
214.9245479483249
 10
6998.464363102634
 20
214.9245479483249
 10
7036.0932982959
 20
214.9245479483249
  0
ARC
  5
360
330
2
100
AcDbEntity
  8
A1枠
100
AcDbCircle
 10
6916.138448825896
 20
223.2898406238041
 30
0.0
 40
3.5
100
AcDbArc
 50
90.0
 51
170.6035226231633
  0
ARC
  5
361
330
2
100
AcDbEntity
  8
A1枠
100
AcDbCircle
 10
6916.138448825896
 20
219.7898406238039
 30
0.0
 40
3.5
100
AcDbArc
 50
189.3964773768302
 51
270.0
  0
ARC
  5
362
330
2
100
AcDbEntity
  8
A1枠
100
AcDbCircle
 10
6916.432126795517
 20
219.7898406238039
 30
0.0
 40
10.49999999999999
100
AcDbArc
 50
208.0724869358428
 51
270.0
  0
LINE
  5
363
330
2
100
AcDbEntity
  8
A1枠
100
AcDbLine
 10
6933.350804765123
 20
198.7898406238036
 30
0.0
 11
6905.494626795517
 21
198.7898406238036
 31
0.0
  0
LINE
  5
364
330
2
100
AcDbEntity
  8
A1枠
100
AcDbLine
 10
6905.494626795517
 20
191.7898406238043
 30
0.0
 11
6933.057126795503
 21
191.7898406238043
 31
0.0
  0
ARC
  5
365
330
2
100
AcDbEntity
  8
A1枠
100
AcDbCircle
 10
6916.432126795517
 20
223.2898406238041
 30
0.0
 40
10.49999999999999
100
AcDbArc
 50
90.0
 51
151.9275130641571
  0
ARC
  5
366
330
2
100
AcDbEntity
  8
A1枠
100
AcDbCircle
 10
6919.713376795518
 20
221.5398406238034
 30
0.0
 40
14.21874999999994
100
AcDbArc
 50
151.9275130641571
 51
208.0724869358428
  0
ARC
  5
367
330
2
100
AcDbEntity
  8
A1枠
100
AcDbCircle
 10
6926.713376795508
 20
221.5398406238034
 30
0.0
 40
14.21875000000007
100
AcDbArc
 50
170.6035226231633
 51
189.3964773768302
  0
LINE
  5
368
330
2
100
AcDbEntity
  8
A1枠
100
AcDbLine
 10
6905.494626795517
 20
198.7898406238036
 30
0.0
 11
6905.494626795517
 21
191.7898406238043
 31
0.0
  0
LINE
  5
369
330
2
100
AcDbEntity
  8
A1枠
100
AcDbLine
 10
7031.494626795503
 20
191.7898406238043
 30
0.0
 11
7031.494626795503
 21
233.7898406238037
 31
0.0
  0
LINE
  5
36A
330
2
100
AcDbEntity
  8
A1枠
100
AcDbLine
 10
7038.49462679551
 20
191.7898406238043
 30
0.0
 11
7038.49462679551
 21
226.7898406238043
 31
0.0
  0
LINE
  5
36B
330
2
100
AcDbEntity
  8
A1枠
100
AcDbLine
 10
7038.49462679551
 20
191.7898406238043
 30
0.0
 11
7031.494626795503
 21
191.7898406238043
 31
0.0
  0
LINE
  5
36C
330
2
100
AcDbEntity
  8
A1枠
100
AcDbLine
 10
7027.994626795518
 20
191.7898406238043
 30
0.0
 11
7027.994626795518
 21
225.0398406238037
 31
0.0
  0
LINE
  5
36D
330
2
100
AcDbEntity
  8
A1枠
100
AcDbLine
 10
7031.494626795503
 20
233.7898406238037
 30
0.0
 11
7042.694626795512
 21
233.7898406238037
 31
0.0
  0
LINE
  5
36E
330
2
100
AcDbEntity
  8
A1枠
100
AcDbLine
 10
7038.49462679551
 20
226.7898406238043
 30
0.0
 11
7039.194626795508
 21
226.7898406238043
 31
0.0
  0
LINE
  5
36F
330
2
100
AcDbEntity
  8
A1枠
100
AcDbLine
 10
7020.99462679551
 20
221.5398406238034
 30
0.0
 11
7020.99462679551
 21
218.0398406238043
 31
0.0
  0
LINE
  5
370
330
2
100
AcDbEntity
  8
A1枠
100
AcDbLine
 10
6996.494626795502
 20
204.0398406238034
 30
0.0
 11
6996.494626795502
 21
205.7898406238041
 31
0.0
  0
LINE
  5
371
330
2
100
AcDbEntity
  8
A1枠
100
AcDbLine
 10
7015.744626795513
 20
198.7898406238036
 30
0.0
 11
7001.744626795518
 21
198.7898406238036
 31
0.0
  0
LINE
  5
372
330
2
100
AcDbEntity
  8
A1枠
100
AcDbLine
 10
7001.744626795518
 20
211.0398406238039
 30
0.0
 11
7020.99462679551
 21
211.0398406238039
 31
0.0
  0
LINE
  5
373
330
2
100
AcDbEntity
  8
A1枠
100
AcDbLine
 10
7020.99462679551
 20
211.0398406238039
 30
0.0
 11
7020.99462679551
 21
191.7898406238043
 31
0.0
  0
LINE
  5
374
330
2
100
AcDbEntity
  8
A1枠
100
AcDbLine
 10
7015.744626795513
 20
191.7898406238043
 30
0.0
 11
7015.744626795513
 21
198.7898406238036
 31
0.0
  0
ARC
  5
375
330
2
100
AcDbEntity
  8
A1枠
100
AcDbCircle
 10
6973.744626795506
 20
221.5398406238034
 30
0.0
 40
5.249999999999999
100
AcDbArc
 50
0.0
 51
90.0
  0
ARC
  5
376
330
2
100
AcDbEntity
  8
A1枠
100
AcDbCircle
 10
6977.24462679551
 20
225.0398406238037
 30
0.0
 40
8.75
100
AcDbArc
 50
0.0
 51
90.0
  0
LINE
  5
377
330
2
100
AcDbEntity
  8
A1枠
100
AcDbLine
 10
6978.994626795503
 20
218.0398406238043
 30
0.0
 11
6952.744626795503
 21
218.0398406238043
 31
0.0
  0
LINE
  5
378
330
2
100
AcDbEntity
  8
A1枠
100
AcDbLine
 10
6973.744626795506
 20
198.7898406238036
 30
0.0
 11
6959.744626795511
 21
198.7898406238036
 31
0.0
  0
LINE
  5
379
330
2
100
AcDbEntity
  8
A1枠
100
AcDbLine
 10
6959.744626795511
 20
211.0398406238039
 30
0.0
 11
6978.994626795503
 21
211.0398406238039
 31
0.0
  0
ARC
  5
37A
330
2
100
AcDbEntity
  8
A1枠
100
AcDbCircle
 10
6959.744626795511
 20
204.0398406238034
 30
0.0
 40
5.249999999999999
100
AcDbArc
 50
180.0
 51
270.0
  0
LINE
  5
37B
330
2
100
AcDbEntity
  8
A1枠
100
AcDbLine
 10
6947.494626795506
 20
212.7898406238034
 30
0.0
 11
6947.494626795506
 21
197.0398406238041
 31
0.0
  0
ARC
  5
37C
330
2
100
AcDbEntity
  8
A1枠
100
AcDbCircle
 10
6929.775876795503
 20
204.0398406238034
 30
0.0
 40
14.21874999999998
100
AcDbArc
 50
331.9275130641571
 51
28.0724869358428
  0
LINE
  5
37D
330
2
100
AcDbEntity
  8
A1枠
100
AcDbLine
 10
6954.494626795514
 20
204.0398406238034
 30
0.0
 11
6954.494626795514
 21
205.7898406238041
 31
0.0
  0
ARC
  5
37E
330
2
100
AcDbEntity
  8
A1枠
100
AcDbCircle
 10
6959.744626795511
 20
205.7898406238041
 30
0.0
 40
5.249999999999999
100
AcDbArc
 50
90.0
 51
180.0
  0
ARC
  5
37F
330
2
100
AcDbEntity
  8
A1枠
100
AcDbCircle
 10
6952.744626795503
 20
212.7898406238034
 30
0.0
 40
5.249999999999999
100
AcDbArc
 50
90.0
 51
180.0
  0
LINE
  5
380
330
2
100
AcDbEntity
  8
A1枠
100
AcDbLine
 10
6978.994626795503
 20
221.5398406238034
 30
0.0
 11
6978.994626795503
 21
218.0398406238043
 31
0.0
  0
LINE
  5
381
330
2
100
AcDbEntity
  8
A1枠
100
AcDbLine
 10
6989.494626795513
 20
212.7898406238034
 30
0.0
 11
6989.494626795513
 21
197.0398406238041
 31
0.0
  0
ARC
  5
382
330
2
100
AcDbEntity
  8
A1枠
100
AcDbCircle
 10
6994.74462679551
 20
212.7898406238034
 30
0.0
 40
5.249999999999999
100
AcDbArc
 50
90.0
 51
180.0
  0
LINE
  5
383
330
2
100
AcDbEntity
  8
A1枠
100
AcDbLine
 10
6952.744626795503
 20
191.7898406238043
 30
0.0
 11
6973.744626795506
 21
191.7898406238043
 31
0.0
  0
LINE
  5
384
330
2
100
AcDbEntity
  8
A1枠
100
AcDbLine
 10
6952.744626795503
 20
191.7898406238043
 30
0.0
 11
6973.744626795506
 21
191.7898406238043
 31
0.0
  0
LINE
  5
385
330
2
100
AcDbEntity
  8
A1枠
100
AcDbLine
 10
6978.994626795503
 20
191.7898406238043
 30
0.0
 11
6985.994626795511
 21
191.7898406238043
 31
0.0
  0
ARC
  5
386
330
2
100
AcDbEntity
  8
A1枠
100
AcDbCircle
 10
6952.744626795503
 20
197.0398406238041
 30
0.0
 40
5.249999999999999
100
AcDbArc
 50
180.0
 51
270.0
  0
LINE
  5
387
330
2
100
AcDbEntity
  8
A1枠
100
AcDbLine
 10
6978.994626795503
 20
211.0398406238039
 30
0.0
 11
6978.994626795503
 21
191.7898406238043
 31
0.0
  0
ARC
  5
388
330
2
100
AcDbEntity
  8
A1枠
100
AcDbCircle
 10
6994.74462679551
 20
197.0398406238041
 30
0.0
 40
5.249999999999999
100
AcDbArc
 50
180.0
 51
270.0
  0
LINE
  5
389
330
2
100
AcDbEntity
  8
A1枠
100
AcDbLine
 10
6973.744626795506
 20
191.7898406238043
 30
0.0
 11
6973.744626795506
 21
198.7898406238036
 31
0.0
  0
LINE
  5
38A
330
2
100
AcDbEntity
  8
A1枠
100
AcDbLine
 10
6985.994626795511
 20
191.7898406238043
 30
0.0
 11
6985.994626795511
 21
225.0398406238037
 31
0.0
  0
LINE
  5
38B
330
2
100
AcDbEntity
  8
A1枠
100
AcDbLine
 10
6977.24462679551
 20
233.7898406238037
 30
0.0
 11
6947.494626795506
 21
233.7898406238037
 31
0.0
  0
LINE
  5
38C
330
2
100
AcDbEntity
  8
A1枠
100
AcDbLine
 10
6947.494626795506
 20
226.7898406238043
 30
0.0
 11
6973.744626795506
 21
226.7898406238043
 31
0.0
  0
LINE
  5
38D
330
2
100
AcDbEntity
  8
A1枠
100
AcDbLine
 10
6947.494626795506
 20
233.7898406238037
 30
0.0
 11
6947.494626795506
 21
226.7898406238043
 31
0.0
  0
LINE
  5
38E
330
2
100
AcDbEntity
  8
A1枠
100
AcDbLine
 10
6943.994626795504
 20
233.7898406238037
 30
0.0
 11
6943.994626795504
 21
226.7898406238043
 31
0.0
  0
LINE
  5
38F
330
2
100
AcDbEntity
  8
A1枠
100
AcDbLine
 10
6989.494626795513
 20
233.7898406238037
 30
0.0
 11
6989.494626795513
 21
226.7898406238043
 31
0.0
  0
LINE
  5
390
330
2
100
AcDbEntity
  8
A1枠
100
AcDbLine
 10
7020.99462679551
 20
218.0398406238043
 30
0.0
 11
6994.74462679551
 21
218.0398406238043
 31
0.0
  0
ARC
  5
391
330
2
100
AcDbEntity
  8
A1枠
100
AcDbCircle
 10
7001.744626795518
 20
204.0398406238034
 30
0.0
 40
5.249999999999999
100
AcDbArc
 50
180.0
 51
270.0
  0
ARC
  5
392
330
2
100
AcDbEntity
  8
A1枠
100
AcDbCircle
 10
7001.744626795518
 20
205.7898406238041
 30
0.0
 40
5.249999999999999
100
AcDbArc
 50
90.0
 51
180.0
  0
LINE
  5
393
330
2
100
AcDbEntity
  8
A1枠
100
AcDbLine
 10
6994.74462679551
 20
191.7898406238043
 30
0.0
 11
7015.744626795513
 21
191.7898406238043
 31
0.0
  0
LINE
  5
394
330
2
100
AcDbEntity
  8
A1枠
100
AcDbLine
 10
6994.74462679551
 20
191.7898406238043
 30
0.0
 11
7015.744626795513
 21
191.7898406238043
 31
0.0
  0
LINE
  5
395
330
2
100
AcDbEntity
  8
A1枠
100
AcDbLine
 10
6989.494626795513
 20
226.7898406238043
 30
0.0
 11
7015.744626795513
 21
226.7898406238043
 31
0.0
  0
LINE
  5
396
330
2
100
AcDbEntity
  8
A1枠
100
AcDbLine
 10
7019.244626795518
 20
233.7898406238037
 30
0.0
 11
6989.494626795513
 21
233.7898406238037
 31
0.0
  0
LINE
  5
397
330
2
100
AcDbEntity
  8
A1枠
100
AcDbLine
 10
6916.138448825896
 20
216.2898406238036
 30
0.0
 11
6933.057126795503
 21
216.2898406238036
 31
0.0
  0
ARC
  5
398
330
2
100
AcDbEntity
  8
A1枠
100
AcDbCircle
 10
6933.350804765123
 20
202.2898406238039
 30
0.0
 40
3.5
100
AcDbArc
 50
270.0
 51
350.6035226231633
  0
ARC
  5
399
330
2
100
AcDbEntity
  8
A1枠
100
AcDbCircle
 10
6933.350804765123
 20
205.7898406238041
 30
0.0
 40
3.5
100
AcDbArc
 50
9.396477376836651
 51
90.0
  0
ARC
  5
39A
330
2
100
AcDbEntity
  8
A1枠
100
AcDbCircle
 10
6922.775876795514
 20
204.0398406238034
 30
0.0
 40
14.21875000000015
100
AcDbArc
 50
350.6035226231633
 51
9.396477376830228
  0
LINE
  5
39B
330
2
100
AcDbEntity
  8
A1枠
100
AcDbLine
 10
6933.350804765123
 20
209.2898406238043
 30
0.0
 11
6916.432126795517
 21
209.2898406238043
 31
0.0
  0
ARC
  5
39C
330
2
100
AcDbEntity
  8
A1枠
100
AcDbCircle
 10
6933.057126795503
 20
205.7898406238041
 30
0.0
 40
10.49999999999999
100
AcDbArc
 50
28.0724869358428
 51
90.0
  0
ARC
  5
39D
330
2
100
AcDbEntity
  8
A1枠
100
AcDbCircle
 10
6933.057126795503
 20
202.2898406238039
 30
0.0
 40
10.49999999999999
100
AcDbArc
 50
270.0
 51
331.9275130641571
  0
LINE
  5
39E
330
2
100
AcDbEntity
  8
A1枠
100
AcDbLine
 10
6916.432126795517
 20
233.7898406238037
 30
0.0
 11
6943.994626795504
 21
233.7898406238037
 31
0.0
  0
LINE
  5
39F
330
2
100
AcDbEntity
  8
A1枠
100
AcDbLine
 10
6943.994626795504
 20
226.7898406238043
 30
0.0
 11
6916.138448825896
 21
226.7898406238043
 31
0.0
  0
ARC
  5
3A0
330
2
100
AcDbEntity
  8
A1枠
100
AcDbCircle
 10
7019.244626795518
 20
225.0398406238037
 30
0.0
 40
8.75
100
AcDbArc
 50
0.0
 51
90.0
  0
ARC
  5
3A1
330
2
100
AcDbEntity
  8
A1枠
100
AcDbCircle
 10
7015.744626795513
 20
221.5398406238034
 30
0.0
 40
5.249999999999999
100
AcDbArc
 50
0.0
 51
90.0
  0
LINE
  5
3A2
330
2
100
AcDbEntity
  8
A1枠
100
AcDbLine
 10
7020.99462679551
 20
191.7898406238043
 30
0.0
 11
7027.994626795518
 21
191.7898406238043
 31
0.0
  0
LINE
  5
3A3
330
2
100
AcDbEntity
  8
A1枠
100
AcDbLine
 10
7060.418532575241
 20
204.2901722057047
 30
0.0
 11
7050.818797840749
 21
228.2895090419026
 31
0.0
  0
LINE
  5
3A4
330
2
100
AcDbEntity
  8
A1枠
100
AcDbLine
 10
7069.242703620476
 20
233.7898406238037
 30
0.0
 11
7069.242703620476
 21
198.7898406238036
 31
0.0
  0
LINE
  5
3A5
330
2
100
AcDbEntity
  8
A1枠
100
AcDbLine
 10
7076.242703620484
 20
233.7898406238037
 30
0.0
 11
7076.242703620484
 21
191.7898406238043
 31
0.0
  0
ARC
  5
3A6
330
2
100
AcDbEntity
  8
A1枠
100
AcDbCircle
 10
7068.542703620479
 20
207.5398406238036
 30
0.0
 40
8.75
100
AcDbArc
 50
201.8014094863524
 51
270.0
  0
LINE
  5
3A7
330
2
100
AcDbEntity
  8
A1枠
100
AcDbLine
 10
7069.242703620476
 20
198.7898406238036
 30
0.0
 11
7068.542703620479
 21
198.7898406238036
 31
0.0
  0
LINE
  5
3A8
330
2
100
AcDbEntity
  8
A1枠
100
AcDbLine
 10
7076.242703620484
 20
191.7898406238043
 30
0.0
 11
7065.042703620476
 21
191.7898406238032
 31
0.0
  0
ARC
  5
3A9
330
2
100
AcDbEntity
  8
A1枠
100
AcDbCircle
 10
7065.042703620476
 20
200.5398406238032
 30
0.0
 40
8.75
100
AcDbArc
 50
201.8014094863524
 51
270.0
  0
LINE
  5
3AA
330
2
100
AcDbEntity
  8
A1枠
100
AcDbLine
 10
7069.242703620476
 20
233.7898406238037
 30
0.0
 11
7076.242703620484
 21
233.7898406238037
 31
0.0
  0
SPLINE
  5
3AB
330
2
100
AcDbEntity
  8
A1枠
 48
5.0
100
AcDbSpline
210
0.0
220
0.0
230
1.0
 70
    11
 71
     3
 72
    36
 73
    32
 74
    30
 42
0.0000000001
 43
0.0000000001
 44
0.0000000001
 40
0.0
 40
0.0
 40
0.0
 40
0.0
 40
5.883166331379068
 40
10.44054392813991
 40
18.06909551698969
 40
36.36128202932281
 40
47.61041426816203
 40
53.23767246304472
 40
54.96244357660457
 40
57.60920812098838
 40
64.82162802077595
 40
70.33164362536007
 40
76.02293272125421
 40
82.46625936793442
 40
91.47019221931966
 40
106.2065156322676
 40
114.0758064228641
 40
129.9540565581279
 40
142.9781240575101
 40
151.7937101280153
 40
163.2278793074922
 40
170.7088451630191
 40
175.9680358760955
 40
183.1113908322223
 40
185.3573797647581
 40
188.2104064963079
 40
193.6229386539367
 40
202.6438382887807
 40
208.0952202408178
 40
212.4999366457085
 40
217.4937437232972
 40
217.4937437232972
 40
217.4937437232972
 40
217.4937437232972
 10
7150.823287027037
 20
229.8793842335697
 30
0.0
 10
7152.186607354561
 20
231.574780065039
 30
0.0
 10
7154.606019787571
 20
234.5835093201731
 30
0.0
 10
7161.037490937079
 20
232.7128533782128
 30
0.0
 10
7169.782187847457
 20
228.2348412443201
 30
0.0
 10
7180.035013634657
 20
220.1421224909537
 30
0.0
 10
7184.960546345722
 20
209.2586629766627
 30
0.0
 10
7178.512022946991
 20
200.8341263069974
 30
0.0
 10
7183.211670691401
 20
200.7905684840979
 30
0.0
 10
7181.114201564509
 20
196.1537788910781
 30
0.0
 10
7176.611828127089
 20
188.7008620753422
 30
0.0
 10
7184.300645153155
 20
195.162128895579
 30
0.0
 10
7190.163374031516
 20
191.989268352025
 30
0.0
 10
7195.339016931796
 20
198.4738587642146
 30
0.0
 10
7204.757306295417
 20
202.3719563521488
 30
0.0
 10
7207.853534869425
 20
213.7421627460089
 30
0.0
 10
7210.159578483079
 20
226.3839655724463
 30
0.0
 10
7204.309967570698
 20
238.0602098129916
 30
0.0
 10
7197.458946872583
 20
248.6177987072284
 30
0.0
 10
7187.755949646907
 20
254.7549284057097
 30
0.0
 10
7177.783444198457
 20
254.668545274729
 30
0.0
 10
7170.922617442311
 20
254.8714373496694
 30
0.0
 10
7161.879574515173
 20
247.9107372098138
 30
0.0
 10
7171.899124148748
 20
253.7364419038851
 30
0.0
 10
7173.819438085669
 20
247.9366421092824
 30
0.0
 10
7168.781620460044
 20
249.2614100513597
 30
0.0
 10
7164.769569814911
 20
245.1561807106392
 30
0.0
 10
7156.912652916814
 20
244.7172094614547
 30
0.0
 10
7154.426744902831
 20
238.4623768896605
 30
0.0
 10
7150.572499834852
 20
234.9505119241943
 30
0.0
 10
7150.736269649965
 20
231.6389486937593
 30
0.0
 10
7150.823287027037
 20
229.8793842335697
 30
0.0
 11
7150.823287027037
 21
229.8793842335697
 31
0.0
 11
7155.325003113272
 21
233.6670218035621
 31
0.0
 11
7159.826706206522
 21
232.9568388555287
 31
0.0
 11
7166.697730820328
 21
229.6426541744647
 31
0.0
 11
7180.439793040926
 21
217.5695512871695
 31
0.0
 11
7182.098320703904
 21
206.4433541777332
 31
0.0
 11
7180.676732988775
 21
200.998620652567
 31
0.0
 11
7182.335247658783
 21
200.5251605343571
 31
0.0
 11
7181.861393749038
 21
197.9211588013265
 31
0.0
 11
7179.018205325796
 21
191.2927894391985
 31
0.0
 11
7183.993775321747
 21
193.6600611131232
 31
0.0
 11
7189.68013917529
 21
193.4233382832996
 31
0.0
 11
7194.892649119087
 21
197.2109758532931
 31
0.0
 11
7202.237540635609
 21
202.4189865486348
 31
0.0
 11
7208.160844436986
 21
215.9124553319977
 31
0.0
 11
7209.108578242399
 21
223.7244677603701
 31
0.0
 11
7203.65914134372
 21
238.6383024397989
 31
0.0
 11
7195.840382924515
 21
249.0543166012027
 31
0.0
 11
7188.258551460146
 21
253.5521371192296
 31
0.0
 11
7176.885810760106
 21
254.7357729561915
 31
0.0
 11
7169.540919243599
 21
253.3154142894061
 31
0.0
 11
7165.2761431052
 21
250.2379524381647
 31
0.0
 11
7172.38410766684
 21
250.9481353861981
 31
0.0
 11
7173.094901524419
 21
248.8175865420969
 31
0.0
 11
7170.251713101179
 21
248.5808564829919
 31
0.0
 11
7165.2761431052
 21
246.4503148681712
 31
0.0
 11
7156.983517783266
 21
242.8994001280023
 31
0.0
 11
7153.903402405145
 21
238.4015723806939
 31
0.0
 11
7151.297153929736
 21
234.850657640525
 31
0.0
 11
7150.823287027037
 21
229.8793842335697
 31
0.0
  0
CIRCLE
  5
3AC
330
2
100
AcDbEntity
  8
A1枠
 48
5.0
100
AcDbCircle
 10
7154.140342352985
 20
208.5739030218348
 30
0.0
 40
16.68085977141076
  0
LWPOLYLINE
  5
3AD
330
2
100
AcDbEntity
  8
A1枠
100
AcDbPolyline
 90
        4
 70
     1
 43
0.0
 10
6506.999997188533
 20
730.0
 10
6906.999997188534
 20
730.0
 10
6906.999997188534
 20
780.0
 10
6506.999997188533
 20
780.0
  0
LWPOLYLINE
  5
3AE
330
2
100
AcDbEntity
  8
A1枠
100
AcDbPolyline
 90
        4
 70
     1
 43
0.0
 10
6506.999994377067
 20
530.0000000000011
 10
6906.999994377066
 20
530.0000000000011
 10
6906.999994377066
 20
580.0000000000011
 10
6506.999994377067
 20
580.0000000000011
  0
LWPOLYLINE
  5
3AF
330
2
100
AcDbEntity
  8
A1枠
100
AcDbPolyline
 90
        4
 70
     1
 43
0.0
 10
6506.999997188533
 20
580.0
 10
6906.999997188534
 20
580.0
 10
6906.999997188534
 20
630.0
 10
6506.999997188533
 20
630.0
  0
LWPOLYLINE
  5
3B0
330
2
100
AcDbEntity
  8
A1枠
100
AcDbPolyline
 90
        4
 70
     1
 43
0.0
 10
6506.999997188533
 20
480.0
 10
6906.999997188534
 20
480.0
 10
6906.999997188534
 20
530.0
 10
6506.999997188533
 20
530.0
  0
LWPOLYLINE
  5
3B1
330
2
100
AcDbEntity
  8
A1枠
100
AcDbPolyline
 90
        4
 70
     1
 43
0.0
 10
6506.999997188533
 20
630.0
 10
6906.999997188534
 20
630.0
 10
6906.999997188534
 20
680.0
 10
6506.999997188533
 20
680.0
  0
LWPOLYLINE
  5
3B2
330
2
100
AcDbEntity
  8
A1枠
100
AcDbPolyline
 90
        4
 70
     1
 43
0.0
 10
6506.999997188533
 20
680.0
 10
6906.999997188534
 20
680.0
 10
6906.999997188534
 20
730.0
 10
6506.999997188533
 20
730.0
  0
MTEXT
  5
3B3
330
2
100
AcDbEntity
  8
A1枠
 62
     3
100
AcDbMText
 10
6707.000000000007
 20
454.9999999999998
 30
0.0
 40
25.0
 41
400.0
 71
     5
 72
     5
  1
Name
  7
表題
 73
     1
 44
1.0
  0
ATTDEF
  5
3B4
330
2
100
AcDbEntity
  8
A1枠
100
AcDbText
 10
6523.756326751855
 20
540.0000000000013
 30
0.0
 40
30.0
  1

  7
表題
 11
6523.756326751855
 21
555.0000000000014
 31
0.0
100
AcDbAttributeDefinition
  3
部品名称
  2
外板-2
 70
     0
 74
     2
  0
ATTDEF
  5
3B5
330
2
100
AcDbEntity
  8
A1枠
100
AcDbText
 10
6523.756329563322
 20
490.0000000000002
 30
0.0
 40
30.0
  1

  7
表題
 11
6523.756329563322
 21
505.0000000000002
 31
0.0
100
AcDbAttributeDefinition
  3
部品名称
  2
外板-1
 70
     0
 74
     2
  0
ATTDEF
  5
3B6
330
2
100
AcDbEntity
  8
A1枠
100
AcDbText
 10
6523.756329563322
 20
590.0000000000002
 30
0.0
 40
30.0
  1

  7
表題
 11
6523.756329563322
 21
605.0000000000002
 31
0.0
100
AcDbAttributeDefinition
  3
部品名称
  2
内板-1
 70
     0
 74
     2
  0
ATTDEF
  5
3B7
330
2
100
AcDbEntity
  8
A1枠
100
AcDbText
 10
6523.756329563322
 20
640.0000000000002
 30
0.0
 40
30.0
  1

  7
表題
 11
6523.756329563322
 21
655.0000000000002
 31
0.0
100
AcDbAttributeDefinition
  3
部品名称
  2
内板-2
 70
     0
 74
     2
  0
LINE
  5
3B8
330
2
100
AcDbEntity
  8
A1枠
100
AcDbLine
 10
6507.000000000008
 20
430.0
 30
0.0
 11
6507.000000000008
 21
480.0
 31
0.0
  0
ATTDEF
  5
3B9
330
2
100
AcDbEntity
  8
A1枠
100
AcDbText
 10
6523.756329563322
 20
740.0000000000002
 30
0.0
 40
30.0
  1

  7
表題
 11
6523.756329563322
 21
755.0000000000002
 31
0.0
100
AcDbAttributeDefinition
  3
部品名称
  2
裏当て板
 70
     0
 74
     2
  0
ATTDEF
  5
3BA
330
2
100
AcDbEntity
  8
A1枠
100
AcDbText
 10
6443.853929772803
 20
740.0000000000002
 30
0.0
 40
30.0
  1

  7
表題
 72
     2
 11
6486.999997188533
 21
755.0000000000002
 31
0.0
100
AcDbAttributeDefinition
  3
品番
  2
10
 70
     0
 74
     2
  0
ATTDEF
  5
3BB
330
2
100
AcDbEntity
  8
A1枠
100
AcDbText
 10
6465.42696348067
 20
690.0000000000002
 30
0.0
 40
30.0
  1

  7
表題
 72
     2
 11
6486.999997188533
 21
705.0000000000002
 31
0.0
100
AcDbAttributeDefinition
  3
品番
  2
3
 70
     0
 74
     2
  0
ATTDEF
  5
3BC
330
2
100
AcDbEntity
  8
A1枠
100
AcDbText
 10
6523.756329563322
 20
690.0000000000002
 30
0.0
 40
30.0
  1

  7
表題
 11
6523.756329563322
 21
705.0000000000002
 31
0.0
100
AcDbAttributeDefinition
  3
部品名称
  2
側板
 70
     0
 74
     2
  0
LWPOLYLINE
  5
3BD
330
2
100
AcDbEntity
  8
A1枠
100
AcDbPolyline
 90
        4
 70
     1
 43
0.0
 10
6906.999997188534
 20
680.0
 10
7156.999997188534
 20
680.0
 10
7156.999997188534
 20
730.0
 10
6906.999997188534
 20
730.0
  0
LWPOLYLINE
  5
3BE
330
2
100
AcDbEntity
  8
A1枠
100
AcDbPolyline
 90
        4
 70
     1
 43
0.0
 10
6906.999994377066
 20
530.0000000000011
 10
7156.999994377066
 20
530.0000000000011
 10
7156.999994377066
 20
580.0000000000011
 10
6906.999994377066
 20
580.0000000000011
  0
LWPOLYLINE
  5
3BF
330
2
100
AcDbEntity
  8
A1枠
100
AcDbPolyline
 90
        4
 70
     1
 43
0.0
 10
6906.999997188534
 20
480.0
 10
7156.999997188534
 20
480.0
 10
7156.999997188534
 20
530.0
 10
6906.999997188534
 20
530.0
  0
LWPOLYLINE
  5
3C0
330
2
100
AcDbEntity
  8
A1枠
100
AcDbPolyline
 90
        4
 70
     1
 43
0.0
 10
6906.999997188534
 20
580.0
 10
7156.999997188534
 20
580.0
 10
7156.999997188534
 20
630.0
 10
6906.999997188534
 20
630.0
  0
LWPOLYLINE
  5
3C1
330
2
100
AcDbEntity
  8
A1枠
100
AcDbPolyline
 90
        4
 70
     1
 43
0.0
 10
6906.999997188534
 20
630.0
 10
7156.999997188534
 20
630.0
 10
7156.999997188534
 20
680.0
 10
6906.999997188534
 20
680.0
  0
MTEXT
  5
3C2
330
2
100
AcDbEntity
  8
A1枠
 62
     3
100
AcDbMText
 10
7031.6665
 20
454.9999999999998
 30
0.0
 40
25.0
 41
223.333
 71
     5
 72
     5
  1
Material
  7
表題
 73
     1
 44
1.0
  0
ATTDEF
  5
3C3
330
2
100
AcDbEntity
  8
A1枠
100
AcDbText
 10
6922.592547688319
 20
540.0000000000032
 30
0.0
 40
30.0
  1

  7
表題
 11
6922.592547688319
 21
555.0000000000031
 31
0.0
100
AcDbAttributeDefinition
  3
材質
  2
SUS316L
 70
     0
 74
     2
  0
ATTDEF
  5
3C4
330
2
100
AcDbEntity
  8
A1枠
100
AcDbText
 10
6922.592550499787
 20
490.000000000002
 30
0.0
 40
30.0
  1

  7
表題
 11
6922.592550499787
 21
505.000000000002
 31
0.0
100
AcDbAttributeDefinition
  3
材質
  2
SUS316L
 70
     0
 74
     2
  0
ATTDEF
  5
3C5
330
2
100
AcDbEntity
  8
A1枠
100
AcDbText
 10
6922.592550499787
 20
590.000000000002
 30
0.0
 40
30.0
  1

  7
表題
 11
6922.592550499787
 21
605.000000000002
 31
0.0
100
AcDbAttributeDefinition
  3
材質
  2
SUS316L
 70
     0
 74
     2
  0
ATTDEF
  5
3C6
330
2
100
AcDbEntity
  8
A1枠
100
AcDbText
 10
6922.592550499787
 20
640.000000000002
 30
0.0
 40
30.0
  1

  7
表題
 11
6922.592550499787
 21
655.000000000002
 31
0.0
100
AcDbAttributeDefinition
  3
材質
  2
SUS316L
 70
     0
 74
     2
  0
LINE
  5
3C7
330
2
100
AcDbEntity
  8
A1枠
100
AcDbLine
 10
6907.000000000008
 20
480.0
 30
0.0
 11
6907.000000000008
 21
430.0
 31
0.0
  0
ATTDEF
  5
3C8
330
2
100
AcDbEntity
  8
A1枠
100
AcDbText
 10
7169.168665705339
 20
540.0000000000122
 30
0.0
 40
30.0
  1

  7
表題
 11
7169.168665705339
 21
555.0000000000123
 31
0.0
100
AcDbAttributeDefinition
  3
素材寸法
  2
t8
 70
     0
 74
     2
  0
ATTDEF
  5
3C9
330
2
100
AcDbEntity
  8
A1枠
100
AcDbText
 10
7169.168668516807
 20
490.0000000000111
 30
0.0
 40
30.0
  1

  7
表題
 11
7169.168668516807
 21
505.0000000000111
 31
0.0
100
AcDbAttributeDefinition
  3
素材寸法
  2
t8
 70
     0
 74
     2
  0
ATTDEF
  5
3CA
330
2
100
AcDbEntity
  8
A1枠
100
AcDbText
 10
7169.168668516807
 20
640.0000000000109
 30
0.0
 40
30.0
  1

  7
表題
 11
7169.168668516807
 21
655.0000000000109
 31
0.0
100
AcDbAttributeDefinition
  3
素材寸法
  2
t0.5
 70
     0
 74
     2
  0
ATTDEF
  5
3CB
330
2
100
AcDbEntity
  8
A1枠
100
AcDbText
 10
7169.168668516807
 20
590.0000000000109
 30
0.0
 40
30.0
  1

  7
表題
 11
7169.168668516807
 21
605.0000000000109
 31
0.0
100
AcDbAttributeDefinition
  3
素材寸法
  2
t20
 70
     0
 74
     2
  0
LINE
  5
3CC
330
2
100
AcDbEntity
  8
A1枠
100
AcDbLine
 10
7157.000000000008
 20
430.0
 30
0.0
 11
7157.000000000008
 21
480.0
 31
0.0
  0
LWPOLYLINE
  5
3CD
330
2
100
AcDbEntity
  8
A1枠
100
AcDbPolyline
 90
        4
 70
     1
 43
0.0
 10
6906.999997188532
 20
730.0
 10
7156.999997188532
 20
730.0
 10
7156.999997188532
 20
780.0
 10
6906.999997188532
 20
780.0
  0
ATTDEF
  5
3CE
330
2
100
AcDbEntity
  8
A1枠
100
AcDbText
 10
6922.592550499785
 20
740.0000000000018
 30
0.0
 40
30.0
  1

  7
表題
 11
6922.592550499785
 21
755.0000000000018
 31
0.0
100
AcDbAttributeDefinition
  3
材質
  2
SUS316L
 70
     0
 74
     2
  0
ATTDEF
  5
3CF
330
2
100
AcDbEntity
  8
A1枠
100
AcDbText
 10
6922.592550499787
 20
690.000000000002
 30
0.0
 40
30.0
  1

  7
表題
 11
6922.592550499787
 21
705.000000000002
 31
0.0
100
AcDbAttributeDefinition
  3
材質
  2
SUS316L
 70
     0
 74
     2
  0
ATTDEF
  5
3D0
330
2
100
AcDbEntity
  8
A1枠
100
AcDbText
 10
7169.168668516809
 20
740.0000000000111
 30
0.0
 40
30.0
  1

  7
表題
 11
7169.168668516809
 21
755.0000000000111
 31
0.0
100
AcDbAttributeDefinition
  3
素材寸法
  2
t6
 70
     0
 74
     2
  0
ATTDEF
  5
3D1
330
2
100
AcDbEntity
  8
A1枠
100
AcDbText
 10
7169.168668516807
 20
690.0000000000109
 30
0.0
 40
30.0
  1

  7
表題
 11
7169.168668516807
 21
705.0000000000109
 31
0.0
100
AcDbAttributeDefinition
  3
素材寸法
  2
t20
 70
     0
 74
     2
  0
LINE
  5
3D2
330
2
100
AcDbEntity
  8
A1枠
100
AcDbLine
 10
8050.0
 20
160.0000027336893
 30
0.0
 11
8050.0
 21
429.9999999999989
 31
0.0
  0
LINE
  5
3D3
330
2
100
AcDbEntity
  8
A1枠
100
AcDbLine
 10
8050.000002811467
 20
160.0000027336898
 30
0.0
 11
8050.000002811467
 21
429.9999999999989
 31
0.0
  0
LINE
  5
3D4
330
2
100
AcDbEntity
  8
A1枠
100
AcDbLine
 10
7720.333333333329
 20
429.9999999999989
 30
0.0
 11
7720.333333333329
 21
379.9999999999988
 31
0.0
  0
MTEXT
  5
3D5
330
2
100
AcDbEntity
  8
A1枠
 62
     3
100
AcDbMText
 10
7730.335869687181
 20
405.3071428571427
 30
0.0
 40
25.0
 41
145.333
 71
     4
 72
     5
  1
FileNo.
  7
表題
 73
     1
 44
1.0
  0
LINE
  5
3D6
330
2
100
AcDbEntity
  8
A1枠
100
AcDbLine
 10
7400.000000000002
 20
429.9999999999989
 30
0.0
 11
7400.000000000002
 21
269.9999999999988
 31
0.0
  0
MTEXT
  5
3D7
330
2
100
AcDbEntity
  8
A1枠
 62
     3
100
AcDbMText
 10
7562.500000000008
 20
404.9999999999988
 30
0.0
 40
30.0
 41
325.0
 71
     5
 72
     5
  1
22/Aug/2002
  7
表題
 73
     1
 44
1.0
  0
MTEXT
  5
3D8
330
2
100
AcDbEntity
  8
A1枠
 62
     3
100
AcDbMText
 10
7430.000000000008
 20
214.9999999999988
 30
0.0
 40
40.0
 41
620.0
 71
     4
 72
     5
  1
TC-01196-225 1/2
  7
表題
 73
     1
 44
1.0
  0
MTEXT
  5
3D9
330
2
100
AcDbEntity
  8
A1枠
 62
     3
100
AcDbMText
 10
7430.000000000008
 20
352.4999999999988
 30
0.0
 40
35.0
 41
620.0
 71
     4
 72
     5
  1
Gamma Detector LXe Vessel
  7
表題
 73
     1
 44
1.0
  0
MTEXT
  5
3DA
330
2
100
AcDbEntity
  8
A1枠
 62
     3
100
AcDbMText
 10
7430.000000000008
 20
297.4999999999988
 30
0.0
 40
35.0
 41
620.0
 71
     4
 72
     5
  1
Parts of the Outer Vessel
  7
表題
 73
     1
 44
1.0
  0
LINE
  5
3DB
330
2
100
AcDbEntity
  8
A1枠
100
AcDbLine
 10
7400.000000000002
 20
269.9999999999988
 30
0.0
 11
7400.000000000002
 21
159.9999999999988
 31
0.0
  0
LINE
  5
3DC
330
2
100
AcDbEntity
  8
A1枠
100
AcDbLine
 10
8020.000000000001
 20
214.9999999999988
 30
0.0
 11
8050.000000000002
 21
214.9999999999988
 31
0.0
  0
LINE
  5
3DD
330
2
100
AcDbEntity
  8
A1枠
100
AcDbLine
 10
7949.170962313002
 20
179.9999999999988
 30
0.0
 11
8030.000000000001
 21
179.9999999999988
 31
0.0
  0
LINE
  5
3DE
330
2
100
AcDbEntity
  8
A1枠
100
AcDbLine
 10
7989.585481155993
 20
249.9999999999988
 30
0.0
 11
8030.000000000001
 21
179.9999999999988
 31
0.0
  0
LINE
  5
3DF
330
2
100
AcDbEntity
  8
A1枠
100
AcDbLine
 10
7989.585481155993
 20
249.9999999999988
 30
0.0
 11
7949.170962313002
 21
179.9999999999988
 31
0.0
  0
MTEXT
  5
3E0
330
2
100
AcDbEntity
  8
A1枠
 62
     3
100
AcDbMText
 10
7990.164727552496
 20
208.7533234386671
 30
0.0
 40
40.0
 41
0.0
 71
     5
 72
     5
  1
0
  7
表題
 73
     1
 44
1.0
  0
LWPOLYLINE
  5
3E1
330
2
100
AcDbEntity
  8
A1枠
100
AcDbPolyline
 90
        4
 70
     1
 43
0.0
 10
7656.999997188532
 20
730.0
 10
7806.99999718853
 20
730.0
 10
7806.99999718853
 20
780.0
 10
7656.999997188532
 20
780.0
  0
LWPOLYLINE
  5
3E2
330
2
100
AcDbEntity
  8
A1枠
100
AcDbPolyline
 90
        4
 70
     1
 43
0.0
 10
7656.999994377066
 20
530.0000000000011
 10
7806.999994377067
 20
530.0000000000011
 10
7806.999994377067
 20
580.0000000000011
 10
7656.999994377066
 20
580.0000000000011
  0
LWPOLYLINE
  5
3E3
330
2
100
AcDbEntity
  8
A1枠
100
AcDbPolyline
 90
        4
 70
     1
 43
0.0
 10
7656.999997188534
 20
480.0
 10
7806.999997188533
 20
480.0
 10
7806.999997188533
 20
530.0
 10
7656.999997188534
 20
530.0
  0
LWPOLYLINE
  5
3E4
330
2
100
AcDbEntity
  8
A1枠
100
AcDbPolyline
 90
        4
 70
     1
 43
0.0
 10
7656.999997188534
 20
580.0
 10
7806.999997188533
 20
580.0
 10
7806.999997188533
 20
630.0
 10
7656.999997188534
 20
630.0
  0
LWPOLYLINE
  5
3E5
330
2
100
AcDbEntity
  8
A1枠
100
AcDbPolyline
 90
        4
 70
     1
 43
0.0
 10
7656.999997188534
 20
630.0
 10
7806.999997188533
 20
630.0
 10
7806.999997188533
 20
680.0
 10
7656.999997188534
 20
680.0
  0
LWPOLYLINE
  5
3E6
330
2
100
AcDbEntity
  8
A1枠
100
AcDbPolyline
 90
        4
 70
     1
 43
0.0
 10
7656.999997188534
 20
680.0
 10
7806.999997188533
 20
680.0
 10
7806.999997188533
 20
730.0
 10
7656.999997188534
 20
730.0
  0
LWPOLYLINE
  5
3E7
330
2
100
AcDbEntity
  8
A1枠
100
AcDbPolyline
 90
        4
 70
     1
 43
0.0
 10
7506.999997188533
 20
680.0
 10
7656.999997188534
 20
680.0
 10
7656.999997188534
 20
730.0
 10
7506.999997188533
 20
730.0
  0
MTEXT
  5
3E8
330
2
100
AcDbEntity
  8
A1枠
 62
     3
100
AcDbMText
 10
7582.000000000007
 20
454.9999999999998
 30
0.0
 40
25.0
 41
150.0
 71
     5
 72
     5
  1
Weight
  7
表題
 73
     1
 44
1.0
  0
LWPOLYLINE
  5
3E9
330
2
100
AcDbEntity
  8
A1枠
100
AcDbPolyline
 90
        4
 70
     1
 43
0.0
 10
7506.999994377067
 20
530.0000000000011
 10
7656.999994377066
 20
530.0000000000011
 10
7656.999994377066
 20
580.0000000000011
 10
7506.999994377067
 20
580.0000000000011
  0
LWPOLYLINE
  5
3EA
330
2
100
AcDbEntity
  8
A1枠
100
AcDbPolyline
 90
        4
 70
     1
 43
0.0
 10
7506.999997188533
 20
630.0
 10
7656.999997188534
 20
630.0
 10
7656.999997188534
 20
680.0
 10
7506.999997188533
 20
680.0
  0
LWPOLYLINE
  5
3EB
330
2
100
AcDbEntity
  8
A1枠
100
AcDbPolyline
 90
        4
 70
     1
 43
0.0
 10
7506.999997188533
 20
480.0
 10
7656.999997188534
 20
480.0
 10
7656.999997188534
 20
530.0
 10
7506.999997188533
 20
530.0
  0
LWPOLYLINE
  5
3EC
330
2
100
AcDbEntity
  8
A1枠
100
AcDbPolyline
 90
        4
 70
     1
 43
0.0
 10
7506.999997188533
 20
580.0
 10
7656.999997188534
 20
580.0
 10
7656.999997188534
 20
630.0
 10
7506.999997188533
 20
630.0
  0
LINE
  5
3ED
330
2
100
AcDbEntity
  8
A1枠
100
AcDbLine
 10
7507.000000000008
 20
480.0
 30
0.0
 11
7507.000000000008
 21
430.0
 31
0.0
  0
ATTDEF
  5
3EE
330
2
100
AcDbEntity
  8
A1枠
100
AcDbText
 10
7765.426960669201
 20
540.0000000000013
 30
0.0
 40
30.0
  1

  7
表題
 72
     2
 11
7786.999994377066
 21
555.0000000000014
 31
0.0
100
AcDbAttributeDefinition
  3
数量
  2
1
 70
     0
 74
     2
  0
ATTDEF
  5
3EF
330
2
100
AcDbEntity
  8
A1枠
100
AcDbText
 10
7765.42696348067
 20
640.0
 30
0.0
 40
30.0
  1

  7
表題
 72
     2
 11
7786.999997188534
 21
655.0
 31
0.0
100
AcDbAttributeDefinition
  3
数量
  2
1
 70
     0
 74
     2
  0
ATTDEF
  5
3F0
330
2
100
AcDbEntity
  8
A1枠
100
AcDbText
 10
7765.42696348067
 20
490.0000000000002
 30
0.0
 40
30.0
  1

  7
表題
 72
     2
 11
7786.999997188534
 21
505.0000000000002
 31
0.0
100
AcDbAttributeDefinition
  3
数量
  2
1
 70
     0
 74
     2
  0
ATTDEF
  5
3F1
330
2
100
AcDbEntity
  8
A1枠
100
AcDbText
 10
7765.42696348067
 20
590.0
 30
0.0
 40
30.0
  1

  7
表題
 72
     2
 11
7786.999997188534
 21
605.0
 31
0.0
100
AcDbAttributeDefinition
  3
数量
  2
2
 70
     0
 74
     2
  0
MTEXT
  5
3F2
330
2
100
AcDbEntity
  8
A1枠
 62
     3
100
AcDbMText
 10
7732.000000000008
 20
454.9999999999989
 30
0.0
 40
25.0
 41
150.0
 71
     5
 72
     5
  1
Quantity
  7
表題
 73
     1
 44
1.0
  0
LINE
  5
3F3
330
2
100
AcDbEntity
  8
A1枠
100
AcDbLine
 10
7657.000000000008
 20
430.0
 30
0.0
 11
7657.000000000008
 21
480.0
 31
0.0
  0
LWPOLYLINE
  5
3F4
330
2
100
AcDbEntity
  8
A1枠
100
AcDbPolyline
 90
        4
 70
     1
 43
0.0
 10
7506.999997188533
 20
730.0
 10
7656.999997188532
 20
730.0
 10
7656.999997188532
 20
780.0
 10
7506.999997188533
 20
780.0
  0
ATTDEF
  5
3F5
330
2
100
AcDbEntity
  8
A1枠
100
AcDbText
 10
7765.426963480663
 20
740.0
 30
0.0
 40
30.0
  1

  7
表題
 72
     2
 11
7786.999997188529
 21
755.0
 31
0.0
100
AcDbAttributeDefinition
  3
数量
  2
1
 70
     0
 74
     2
  0
ATTDEF
  5
3F6
330
2
100
AcDbEntity
  8
A1枠
100
AcDbText
 10
7765.42696348067
 20
690.0
 30
0.0
 40
30.0
  1

  7
表題
 72
     2
 11
7786.999997188534
 21
705.0
 31
0.0
100
AcDbAttributeDefinition
  3
数量
  2
2
 70
     0
 74
     2
  0
LWPOLYLINE
  5
3F7
330
2
100
AcDbEntity
  8
A1枠
100
AcDbPolyline
 90
        4
 70
     1
 43
0.0
 10
7806.999997188533
 20
680.0
 10
8050.0
 20
680.0
 10
8050.0
 20
730.0
 10
7806.999997188533
 20
730.0
  0
LWPOLYLINE
  5
3F8
330
2
100
AcDbEntity
  8
A1枠
100
AcDbPolyline
 90
        4
 70
     1
 43
0.0
 10
7806.999994377067
 20
530.0000000000011
 10
8049.999997188534
 20
530.0000000000011
 10
8049.999997188534
 20
580.0000000000011
 10
7806.999994377067
 20
580.0000000000011
  0
LWPOLYLINE
  5
3F9
330
2
100
AcDbEntity
  8
A1枠
100
AcDbPolyline
 90
        4
 70
     1
 43
0.0
 10
7806.999997188533
 20
580.0
 10
8050.0
 20
580.0
 10
8050.0
 20
630.0
 10
7806.999997188533
 20
630.0
  0
LWPOLYLINE
  5
3FA
330
2
100
AcDbEntity
  8
A1枠
100
AcDbPolyline
 90
        4
 70
     1
 43
0.0
 10
7806.999997188533
 20
480.0
 10
8050.0
 20
480.0
 10
8050.0
 20
530.0
 10
7806.999997188533
 20
530.0
  0
LWPOLYLINE
  5
3FB
330
2
100
AcDbEntity
  8
A1枠
100
AcDbPolyline
 90
        4
 70
     1
 43
0.0
 10
7806.999997188533
 20
630.0
 10
8050.0
 20
630.0
 10
8050.0
 20
680.0
 10
7806.999997188533
 20
680.0
  0
LINE
  5
3FC
330
2
100
AcDbEntity
  8
A1枠
100
AcDbLine
 10
7807.000000000008
 20
480.0
 30
0.0
 11
7807.000000000008
 21
430.0
 31
0.0
  0
MTEXT
  5
3FD
330
2
100
AcDbEntity
  8
A1枠
 62
     3
100
AcDbMText
 10
7928.500000000008
 20
454.9999999999998
 30
0.0
 40
25.0
 41
243.0
 71
     5
 72
     5
  1
Comments
  7
表題
 73
     1
 44
1.0
  0
LINE
  5
3FE
330
2
100
AcDbEntity
  8
A1枠
100
AcDbLine
 10
8050.000002811467
 20
480.0
 30
0.0
 11
8050.000002811467
 21
429.9999999999989
 31
0.0
  0
LWPOLYLINE
  5
3FF
330
2
100
AcDbEntity
  8
A1枠
100
AcDbPolyline
 90
        4
 70
     1
 43
0.0
 10
7806.99999718853
 20
730.0
 10
8050.000000000002
 20
730.0
 10
8050.000000000002
 20
780.0
 10
7806.99999718853
 20
780.0
  0
DIMENSION
  5
400
330
2
100
AcDbEntity
  8
AM_5
100
AcDbDimension
  2
*D67
 10
7469.581080980848
 20
2675.301159147231
 30
0.0
 11
7447.081080980847
 21
2749.903908202227
 31
0.0
 70
    32
 71
     5
 42
149.2054981099886
  3
スタイル2
100
AcDbAlignedDimension
 13
7211.614595228515
 23
2824.50665725722
 33
0.0
 14
7123.281261895181
 24
2675.301159147232
 34
0.0
 50
90.0
100
AcDbRotatedDimension
1001
ACAD
1000
DSTYLE
1002
{
1070
   271
1070
     1
1070
   272
1070
     1
1002
}
  0
DIMENSION
  5
40D
330
2
100
AcDbEntity
  8
AM_5
100
AcDbDimension
  2
*D48
 10
7469.581080980848
 20
2178.899716737085
 30
0.0
 11
7447.081080980847
 21
2272.100437942159
 31
0.0
 71
     5
 42
186.4014424101465
  3
スタイル2
100
AcDbAlignedDimension
 13
7123.281261895181
 23
2365.301159147232
 33
0.0
 14
7211.614595228517
 24
2178.899716737085
 34
0.0
 50
90.0
100
AcDbRotatedDimension
1001
ACAD
1000
DSTYLE
1002
{
1070
   279
1070
     1
1002
}
  0
DIMENSION
  5
41A
330
2
100
AcDbEntity
  8
AM_5
100
AcDbDimension
  2
*D47
 10
7469.581080980848
 20
2365.301159147231
 30
0.0
 11
7447.081080980847
 21
2520.301159147233
 31
0.0
 71
     5
 42
310.0
  3
スタイル2
100
AcDbAlignedDimension
 13
7123.281261895181
 23
2675.301159147232
 33
0.0
 14
7123.281261895181
 24
2365.301159147232
 34
0.0
 50
90.0
100
AcDbRotatedDimension
1001
ACAD
1000
DSTYLE
1002
{
1070
   279
1070
     1
1002
}
  0
DIMENSION
  5
427
330
2
100
AcDbEntity
  8
AM_5
100
AcDbDimension
  2
*D68
 10
7557.081080980847
 20
2178.899716737085
 30
0.0
 11
7534.581080980847
 21
2501.703186997154
 31
0.0
 70
    32
 71
     5
 42
645.6069405201351
  3
スタイル2
100
AcDbAlignedDimension
 13
7211.614595228515
 23
2824.50665725722
 33
0.0
 14
7211.614595228517
 24
2178.899716737085
 34
0.0
 50
90.0
100
AcDbRotatedDimension
1001
ACAD
1000
DSTYLE
1002
{
1070
   271
1070
     1
1070
   272
1070
     1
1002
}
  0
DIMENSION
  5
434
330
2
100
AcDbEntity
  8
AM_5
100
AcDbDimension
  2
*D69
 10
7644.581080980848
 20
2174.816501430273
 30
0.0
 11
7622.081080980847
 21
2499.661579343748
 31
0.0
 70
    32
 71
     5
 42
649.6901558269473
  3
スタイル2
100
AcDbAlignedDimension
 13
7211.614595228515
 23
2824.50665725722
 33
0.0
 14
7211.614595228517
 24
2174.816501430273
 34
0.0
 50
90.0
100
AcDbRotatedDimension
1001
ACAD
1000
DSTYLE
1002
{
1070
   271
1070
     1
1070
   272
1070
     1
1002
}
  0
LWPOLYLINE
  5
441
330
2
100
AcDbEntity
  8
AM_0
100
AcDbPolyline
 90
        4
 70
     0
 43
0.0
 10
6765.54330620325
 20
1331.15143219817
 10
7419.472017177986
 20
1331.15143219817
 10
7419.472017177986
 20
1481.15143219817
 10
6765.54330620325
 20
1481.15143219817
  0
DIMENSION
  5
442
330
2
100
AcDbEntity
  8
AM_5
100
AcDbDimension
  2
*D70
 10
7557.081080980847
 20
2174.816501430273
 30
0.0
 11
7534.581080980847
 21
2100.85711056733
 31
0.0
 70
    32
 71
     5
 42
4.083215306812235
  3
スタイル2
100
AcDbAlignedDimension
 13
7211.614595228517
 23
2178.899716737085
 33
0.0
 14
7211.614595228517
 24
2174.816501430273
 34
0.0
 50
90.0
100
AcDbRotatedDimension
1001
ACAD
1000
DSTYLE
1002
{
1070
   271
1070
     1
1070
   272
1070
     1
1002
}
  0
DIMENSION
  5
451
330
2
100
AcDbEntity
  8
AM_5
100
AcDbDimension
  2
*D53
 10
7419.472017177986
 20
1668.289133333139
 30
0.0
 11
6685.54330620325
 21
1690.789133333139
 31
0.0
  1
1270 
 71
     5
 42
1467.857421949471
  3
スタイル2
100
AcDbAlignedDimension
 13
5951.614595228515
 23
1481.15143219817
 33
0.0
 14
7419.472017177986
 24
1481.15143219817
 34
0.0
100
AcDbRotatedDimension
  0
LINE
  5
45E
330
2
100
AcDbEntity
  8
AM_6
100
AcDbLine
 10
6042.322324627196
 20
1941.81920730961
 30
0.0
 11
7079.880475084443
 21
1941.81920730961
 31
0.0
  0
MTEXT
  5
45F
330
2
100
AcDbEntity
  8
AM_6
100
AcDbMText
 10
6614.707529309896
 20
1975.53406730292
 30
0.0
 40
45.0
 41
0.0
 71
     5
 72
     5
  1
Descriptio of Front Wall S=1/10
  7
スタイル１
 73
     1
 44
1.0
  0
MTEXT
  5
460
330
2
100
AcDbEntity
  8
AM_6
100
AcDbMText
 10
6614.707529309896
 20
1106.255943705404
 30
0.0
 40
45.0
 41
0.0
 71
     5
 72
     5
  1
Description of Backing S=1/2
  7
スタイル１
 73
     1
 44
1.0
  0
LINE
  5
461
330
2
100
AcDbEntity
  8
AM_6
100
AcDbLine
 10
6092.851420875831
 20
1072.541083712094
 30
0.0
 11
7044.365850446105
 21
1072.541083712094
 31
0.0
  0
LWPOLYLINE
  5
462
330
2
100
AcDbEntity
  8
AM_0
100
AcDbPolyline
 90
        4
 70
     0
 43
0.0
 10
6685.54330620325
 20
1481.15143219817
 10
5951.614595228515
 20
1481.15143219817
 10
5951.614595228515
 20
1331.15143219817
 10
6685.54330620325
 20
1331.15143219817
  0
CIRCLE
  5
463
330
2
100
AcDbEntity
  8
AM_6
100
AcDbCircle
 10
6139.769154208313
 20
1112.541083712094
 30
0.0
 40
40.0
  0
MTEXT
  5
464
330
2
100
AcDbEntity
  8
AM_6
100
AcDbMText
 10
6140.54748241736
 20
1116.295592082271
 30
0.0
 40
38.0
 41
0.0
 71
     5
 72
     1
  1
10
  7
スタイル１
 73
     1
 44
1.0
  0
CIRCLE
  5
465
330
2
100
AcDbEntity
  8
AM_6
100
AcDbCircle
 10
6085.537304510193
 20
1981.81920730961
 30
0.0
 40
40.0
  0
MTEXT
  5
466
330
2
100
AcDbEntity
  8
AM_6
100
AcDbMText
 10
6086.315632719239
 20
1985.573715679787
 30
0.0
 40
38.0
 41
0.0
 71
     5
 72
     1
  1
3
  7
スタイル１
 73
     1
 44
1.0
  0
LINE
  5
467
330
2
100
AcDbEntity
  8
細線
100
AcDbLine
 10
6765.54330620325
 20
1501.15143219817
 30
0.0
 11
6765.54330620325
 21
1431.15143219817
 31
0.0
  0
LINE
  5
468
330
2
100
AcDbEntity
  8
細線
100
AcDbLine
 10
6685.54330620325
 20
1501.15143219817
 30
0.0
 11
6685.54330620325
 21
1431.15143219817
 31
0.0
  0
LWPOLYLINE
  5
469
330
2
100
AcDbEntity
  8
細線
100
AcDbPolyline
 90
        4
 70
     0
 43
0.0
 10
6765.54330620325
 20
1431.15143219817
 10
6740.54330620325
 20
1406.15143219817
 10
6790.54330620325
 20
1406.15143219817
 10
6765.54330620325
 20
1381.15143219817
  0
LWPOLYLINE
  5
46A
330
2
100
AcDbEntity
  8
細線
100
AcDbPolyline
 90
        4
 70
     0
 43
0.0
 10
6685.54330620325
 20
1431.15143219817
 10
6660.54330620325
 20
1406.15143219817
 10
6710.54330620325
 20
1406.15143219817
 10
6685.54330620325
 20
1381.15143219817
  0
LINE
  5
46B
330
2
100
AcDbEntity
  8
細線
100
AcDbLine
 10
6765.54330620325
 20
1381.15143219817
 30
0.0
 11
6765.54330620325
 21
1311.15143219817
 31
0.0
  0
LINE
  5
46C
330
2
100
AcDbEntity
  8
細線
100
AcDbLine
 10
6685.54330620325
 20
1381.15143219817
 30
0.0
 11
6685.54330620325
 21
1311.15143219817
 31
0.0
  0
LEADER
  5
46D
330
2
100
AcDbEntity
  8
AM_5
100
AcDbLeader
  3
スタイル2
 73
     0
 74
     0
 75
     1
 40
42.28426395939086
 41
180.5076142131979
 76
     3
 10
6115.820091882039
 20
2684.639460107616
 30
0.0
 10
6281.151998819792
 20
2915.733989415934
 30
0.0
 10
6301.151998819793
 20
2915.733989415934
 30
0.0
340
46E
1001
ACAD
1000
DSTYLE
1002
{
1070
   147
1040
5.0
1070
    77
1070
     1
1002
}
  0
MTEXT
  5
46E
102
{ACAD_REACTORS
330
46D
102
}
330
2
100
AcDbEntity
  8
AM_5
100
AcDbMText
 10
6306.151998819792
 20
2920.733989415934
 30
0.0
 40
35.0
 41
0.0
 71
     7
 72
     1
  1
4-34 diam. Through Hole
  7
スタイル１
 73
     1
 44
1.0
  0
MTEXT
  5
46F
330
2
100
AcDbEntity
  8
AM_5
100
AcDbMText
 10
6277.809344367912
 20
2909.717497659952
 30
0.0
 40
35.0
 41
0.0
 71
     1
 72
     1
  1
For View Port
  7
スタイル１
 73
     1
 44
1.0
  0
LINE
  5
470
330
2
100
AcDbEntity
  8
AM_7
100
AcDbLine
 10
6173.281261895184
 20
2675.301159147232
 30
0.0
 11
6989.947928561846
 21
2675.301159147232
 31
0.0
  0
LINE
  5
471
330
2
100
AcDbEntity
  8
AM_7
100
AcDbLine
 10
6173.281261895182
 20
2365.301159147232
 30
0.0
 11
6989.947928561846
 21
2365.301159147232
 31
0.0
  0
LINE
  5
472
330
2
100
AcDbEntity
  8
AM_2
100
AcDbLine
 10
5951.614595228515
 20
2174.816501430273
 30
0.0
 11
7211.614595228517
 21
2174.816501430273
 31
0.0
  0
LINE
  5
473
330
2
100
AcDbEntity
  8
AM_2
100
AcDbLine
 10
5951.614595228515
 20
2178.899716737085
 30
0.0
 11
7211.614595228517
 21
2178.899716737085
 31
0.0
  0
LINE
  5
474
330
2
100
AcDbEntity
  8
AM_2
100
AcDbLine
 10
7211.614595228515
 20
2824.50665725722
 30
0.0
 11
5951.614595228513
 21
2824.50665725722
 31
0.0
  0
LINE
  5
475
330
2
100
AcDbEntity
  8
AM_2
100
AcDbLine
 10
5951.614595228513
 20
2824.50665725722
 30
0.0
 11
5951.614595228515
 21
2174.816501430273
 31
0.0
  0
LINE
  5
476
330
2
100
AcDbEntity
  8
AM_7
100
AcDbLine
 10
6101.614595228515
 20
2614.301159147232
 30
0.0
 11
6101.614595228515
 21
2426.301159147232
 31
0.0
  0
CIRCLE
  5
477
330
2
100
AcDbEntity
  8
ノゾキ窓
100
AcDbCircle
 10
6101.614595228515
 20
2365.301159147232
 30
0.0
 40
17.0
  0
LINE
  5
478
330
2
100
AcDbEntity
  8
AM_7
100
AcDbLine
 10
6039.947928561849
 20
2365.301159147232
 30
0.0
 11
6163.281261895183
 21
2365.301159147232
 31
0.0
  0
LINE
  5
479
330
2
100
AcDbEntity
  8
AM_7
100
AcDbLine
 10
6101.614595228515
 20
2426.301159147232
 30
0.0
 11
6101.614595228515
 21
2304.301159147232
 31
0.0
  0
LINE
  5
47A
330
2
100
AcDbEntity
  8
AM_7
100
AcDbLine
 10
6101.614595228515
 20
2736.301159147232
 30
0.0
 11
6101.614595228515
 21
2614.301159147232
 31
0.0
  0
CIRCLE
  5
47B
330
2
100
AcDbEntity
  8
ノゾキ窓
100
AcDbCircle
 10
6101.614595228515
 20
2675.301159147232
 30
0.0
 40
17.0
  0
LINE
  5
47C
330
2
100
AcDbEntity
  8
AM_7
100
AcDbLine
 10
6039.947928561848
 20
2675.301159147232
 30
0.0
 11
6163.281261895182
 21
2675.301159147232
 31
0.0
  0
LINE
  5
47D
330
2
100
AcDbEntity
  8
AM_2
100
AcDbLine
 10
7211.614595228517
 20
2174.816501430273
 30
0.0
 11
7211.614595228515
 21
2824.50665725722
 31
0.0
  0
LINE
  5
47E
330
2
100
AcDbEntity
  8
AM_7
100
AcDbLine
 10
7061.614595228514
 20
2614.301159147232
 30
0.0
 11
7061.614595228514
 21
2426.301159147232
 31
0.0
  0
LINE
  5
47F
330
2
100
AcDbEntity
  8
AM_7
100
AcDbLine
 10
6999.947928561848
 20
2365.301159147232
 30
0.0
 11
7123.281261895181
 21
2365.301159147232
 31
0.0
  0
CIRCLE
  5
480
330
2
100
AcDbEntity
  8
ノゾキ窓
100
AcDbCircle
 10
7061.614595228514
 20
2365.301159147232
 30
0.0
 40
17.0
  0
LINE
  5
481
330
2
100
AcDbEntity
  8
AM_7
100
AcDbLine
 10
7061.614595228514
 20
2426.301159147232
 30
0.0
 11
7061.614595228514
 21
2304.301159147232
 31
0.0
  0
LINE
  5
482
330
2
100
AcDbEntity
  8
AM_7
100
AcDbLine
 10
6999.947928561848
 20
2675.301159147232
 30
0.0
 11
7123.281261895181
 21
2675.301159147232
 31
0.0
  0
LINE
  5
483
330
2
100
AcDbEntity
  8
AM_7
100
AcDbLine
 10
7061.614595228514
 20
2736.301159147232
 30
0.0
 11
7061.614595228514
 21
2614.301159147232
 31
0.0
  0
CIRCLE
  5
484
330
2
100
AcDbEntity
  8
ノゾキ窓
100
AcDbCircle
 10
7061.614595228514
 20
2675.301159147232
 30
0.0
 40
17.0
  0
LINE
  5
485
330
2
100
AcDbEntity
  8
AM_7
100
AcDbLine
 10
5401.166610792463
 20
3870.663083842016
 30
0.0
 11
5601.166610792463
 21
3870.663083842016
 31
0.0
  0
LINE
  5
486
330
2
100
AcDbEntity
  8
AM_3
100
AcDbLine
 10
4836.059585961675
 20
5507.596057884214
 30
0.0
 11
4836.059585961676
 21
5204.117028716057
 31
0.0
  0
DIMENSION
  5
487
330
2
100
AcDbEntity
  8
AM_5
100
AcDbDimension
  2
*D30
 10
5131.62965607217
 20
4820.6379995479
 30
0.0
 11
5109.129656072169
 21
5164.117028716058
 31
0.0
  1
1260
 71
     5
 42
137.3916116672626
  3
スタイル2
100
AcDbAlignedDimension
 13
4901.166610792467
 23
5507.596057884214
 33
0.0
 14
4901.166610792467
 24
4820.6379995479
 34
0.0
 50
90.0
100
AcDbRotatedDimension
1001
ACAD
1000
DSTYLE
1002
{
1070
   144
1040
0.2
1070
   271
1070
     1
1070
   272
1070
     1
1070
   343
1005
20
1070
   344
1005
1DA
1002
}
  0
LINE
  5
494
330
2
100
AcDbEntity
  8
実線
100
AcDbLine
 10
4901.166610792467
 20
5204.117028716057
 30
0.0
 11
4901.166610792467
 21
5507.596057884214
 31
0.0
  0
LINE
  5
496
330
2
100
AcDbEntity
  8
AM_3
100
AcDbLine
 10
4126.3033146165
 20
5507.596057884214
 30
0.0
 11
4126.3033146165
 21
5204.117028716057
 31
0.0
  0
LINE
  5
497
330
2
100
AcDbEntity
  8
AM_3
100
AcDbLine
 10
4121.28021065721
 20
5507.596057884214
 30
0.0
 11
4121.28021065721
 21
5204.117028716057
 31
0.0
  0
LINE
  5
498
330
2
100
AcDbEntity
  8
AM_3
100
AcDbLine
 10
4114.230448153294
 20
5507.596057884214
 30
0.0
 11
4114.230448153293
 21
5204.117028716057
 31
0.0
  0
LINE
  5
499
330
2
100
AcDbEntity
  8
AM_3
100
AcDbLine
 10
4114.789918027866
 20
5507.596057884214
 30
0.0
 11
4114.789918027865
 21
5204.117028716057
 31
0.0
  0
LINE
  5
49A
330
2
100
AcDbEntity
  8
AM_3
100
AcDbLine
 10
4092.693644610253
 20
5507.596057884214
 30
0.0
 11
4092.693644610253
 21
5204.117028716057
 31
0.0
  0
LINE
  5
49B
330
2
100
AcDbEntity
  8
実線
100
AcDbLine
 10
3998.497427394333
 20
5204.117028716057
 30
0.0
 11
3998.497427394333
 21
5507.596057884214
 31
0.0
  0
DIMENSION
  5
49C
330
2
100
AcDbEntity
  8
AM_5
100
AcDbDimension
  2
*D11
 10
2316.488818480587
 20
4324.672662317304
 30
0.0
 11
2293.988818480587
 21
4959.672662317306
 31
0.0
 71
     5
 42
1270.0
  3
スタイル2
100
AcDbAlignedDimension
 13
2001.225096231191
 23
5594.672662317305
 33
0.0
 14
2001.225096231191
 24
4324.672662317305
 34
0.0
 50
90.0
100
AcDbRotatedDimension
  0
LINE
  5
4A9
330
2
100
AcDbEntity
  8
AM_0
100
AcDbLine
 10
2001.225096231191
 20
5594.672662317305
 30
0.0
 11
2001.225096231191
 21
4324.672662317305
 31
0.0
  0
LINE
  5
4AB
330
2
100
AcDbEntity
  8
AM_5
 62
     2
100
AcDbLine
 10
2001.225096231141
 20
3441.49229296468
 30
0.0
 11
2001.225096231146
 21
4042.787256144793
 31
0.0
  0
LINE
  5
4AF
330
2
100
AcDbEntity
  8
AM_0
100
AcDbLine
 10
2001.225096231141
 20
3431.492292964679
 30
0.0
 11
2001.225096231141
 21
3423.455051859607
 31
0.0
  0
LINE
  5
4B0
330
2
100
AcDbEntity
  8
AM_5
 62
     2
380
     1
100
AcDbLine
 10
1980.760557494994
 20
3835.937075455555
 30
0.0
 11
2001.22509623102
 21
3832.787256144812
 31
0.0
  0
LINE
  5
4B1
330
2
100
AcDbEntity
  8
AM_5
 62
     2
380
     1
100
AcDbLine
 10
2001.22509623102
 20
3832.787256144812
 30
0.0
 11
1981.927376119474
 21
3825.282810404777
 31
0.0
  0
LINE
  5
4B2
330
2
100
AcDbEntity
  8
AM_5
 62
     2
380
     1
100
AcDbLine
 10
1980.760557495048
 20
3735.750409088528
 30
0.0
 11
2001.225096231074
 21
3732.600589777785
 31
0.0
  0
LINE
  5
4B3
330
2
100
AcDbEntity
  8
AM_5
 62
     2
380
     1
100
AcDbLine
 10
2001.225096231074
 20
3732.600589777785
 30
0.0
 11
1981.927376119529
 21
3725.096144037751
 31
0.0
  0
LINE
  5
4B4
330
2
100
AcDbEntity
  8
AM_5
 62
     2
380
     1
100
AcDbLine
 10
2001.22509623102
 20
4033.24805251106
 30
0.0
 11
1981.927376119475
 21
4025.743606771025
 31
0.0
  0
LINE
  5
4B5
330
2
100
AcDbEntity
  8
AM_5
 62
     2
380
     1
100
AcDbLine
 10
1980.760557494995
 20
4036.397871821804
 30
0.0
 11
2001.22509623102
 21
4033.24805251106
 31
0.0
  0
LINE
  5
4B6
330
2
100
AcDbEntity
  8
AM_5
 62
     2
380
     1
100
AcDbLine
 10
1980.760557494994
 20
3936.271073292579
 30
0.0
 11
2001.22509623102
 21
3933.121253981836
 31
0.0
  0
LINE
  5
4B7
330
2
100
AcDbEntity
  8
AM_5
 62
     2
380
     1
100
AcDbLine
 10
2001.22509623102
 20
3933.121253981836
 30
0.0
 11
1981.927376119474
 21
3925.616808241801
 31
0.0
  0
LEADER
  5
4B8
330
2
100
AcDbEntity
  8
AM_5
100
AcDbLeader
  3
スタイル2
 73
     0
 75
     1
 40
42.46192893401015
 41
178.5532994923857
 76
     3
 10
2992.416601560224
 20
3870.032639833654
 30
0.0
 10
2675.826517781271
 20
3711.275431274662
 30
0.0
 10
2655.826517781271
 20
3711.275431274662
 30
0.0
340
4BE
1001
ACAD
1000
DSTYLE
1002
{
1070
   341
1005
4B9
1002
}
  0
MTEXT
  5
4BE
102
{ACAD_REACTORS
330
4B8
102
}
330
2
100
AcDbEntity
  8
AM_5
100
AcDbMText
 10
2650.826517781271
 20
3716.275431274662
 30
0.0
 40
35.0
 41
0.0
 71
     9
 72
     1
  1
Backing
  7
スタイル１
 73
     1
 44
1.0
  0
LEADER
  5
4BF
330
2
100
AcDbEntity
  8
AM_5
100
AcDbLeader
  3
スタイル2
 73
     0
 75
     1
 40
41.21827411167512
 41
131.6497461928933
 76
     3
 10
2807.999588440857
 20
3976.340026209344
 30
0.0
 10
2724.437372172127
 20
4131.624882096402
 30
0.0
 10
2704.437372172128
 20
4131.624882096402
 30
0.0
340
4C0
1001
ACAD
1000
DSTYLE
1002
{
1070
   147
1040
5.0
1070
    77
1070
     1
1070
   271
1070
     1
1070
   272
1070
     1
1002
}
  0
MTEXT
  5
4C0
102
{ACAD_REACTORS
330
4BF
102
}
330
2
100
AcDbEntity
  8
AM_5
100
AcDbMText
 10
2699.437372172127
 20
4136.624882096403
 30
0.0
 40
35.0
 41
0.0
 71
     9
 72
     1
  1
Outer Wall-2
  7
スタイル１
 73
     1
 44
1.0
  0
LINE
  5
4C1
330
2
100
AcDbEntity
  8
AM_0
100
AcDbLine
 10
3361.468944155292
 20
3896.258813935696
 30
0.0
 11
2750.859142057299
 21
3896.258813935696
 31
0.0
  0
LINE
  5
4C2
330
2
100
AcDbEntity
  8
AM_0
100
AcDbLine
 10
3052.913079653343
 20
3976.340026209344
 30
0.0
 11
2755.597040154019
 21
3976.340026209344
 31
0.0
  0
LINE
  5
4C3
330
2
100
AcDbEntity
  8
AM_6
100
AcDbLine
 10
2699.446788951307
 20
3549.486300647084
 30
0.0
 11
3449.731986187973
 21
3549.486300647084
 31
0.0
  0
CIRCLE
  5
4C8
330
2
100
AcDbEntity
  8
AM_5
100
AcDbCircle
 10
2534.490060712613
 20
3654.11345246016
 30
0.0
 40
40.0
  0
MTEXT
  5
4C9
330
2
100
AcDbEntity
  8
AM_5
100
AcDbMText
 10
2536.337535232125
 20
3656.479499119648
 30
0.0
 40
45.0
 41
0.0
 71
     5
 72
     1
  1
10
  7
スタイル１
 73
     1
 44
1.0
  0
CIRCLE
  5
4D0
330
2
100
AcDbEntity
  8
AM_5
100
AcDbCircle
 10
2622.773641894339
 20
4083.851267711703
 30
0.0
 40
40.0
  0
SPLINE
  5
4D1
330
2
100
AcDbEntity
  8
AM_8
100
AcDbSpline
210
0.0
220
0.0
230
1.0
 70
     8
 71
     3
 72
    10
 73
     6
 74
     4
 42
0.0000000001
 43
0.0000000001
 44
0.0000000001
 40
0.0
 40
0.0
 40
0.0
 40
0.0
 40
29.24857305496187
 40
67.2155525180544
 40
88.7228961041008
 40
88.7228961041008
 40
88.7228961041008
 40
88.7228961041008
 10
2755.597040154019
 20
3976.340026209344
 30
0.0
 10
2749.21376265738
 20
3967.324710860161
 30
0.0
 10
2734.54448210799
 20
3946.606797504827
 30
0.0
 10
2769.435535237385
 20
3919.932701872065
 30
0.0
 10
2755.523502700269
 20
3902.546193079899
 30
0.0
 10
2750.492577615021
 20
3896.258813935693
 30
0.0
 11
2755.597040154019
 21
3976.340026209344
 31
0.0
 11
2744.230024746906
 21
3949.39062943528
 31
0.0
 11
2760.707451484711
 21
3915.185572241187
 31
0.0
 11
2750.492577615021
 21
3896.258813935693
 31
0.0
  0
MTEXT
  5
4D3
330
2
100
AcDbEntity
  8
AM_5
100
AcDbMText
 10
2623.551970103385
 20
4087.60577608188
 30
0.0
 40
38.0
 41
0.0
 71
     5
 72
     1
  1
1-2
  7
スタイル１
 73
     1
 44
1.0
  0
DIMENSION
  5
4D4
330
2
100
AcDbEntity
  8
AM_5
100
AcDbDimension
  2
*D60
 10
3243.374486424665
 20
3727.509621390367
 30
0.0
 11
3093.374486424665
 21
3750.009621390367
 31
0.0
 70
    32
 71
     5
 42
30.0
  3
スタイル2
100
AcDbAlignedDimension
 13
2943.374486424665
 23
3836.258813935696
 33
0.0
 14
3243.374486424665
 24
3836.258813935696
 34
0.0
100
AcDbRotatedDimension
1001
ACAD
1000
DSTYLE
1002
{
1070
   144
1040
0.1
1070
   271
1070
     1
1070
   272
1070
     1
1002
}
  0
MTEXT
  5
4E1
330
2
100
AcDbEntity
  8
AM_6
100
AcDbMText
 10
3100.565187759772
 20
3583.201160640394
 30
0.0
 40
45.0
 41
0.0
 71
     5
 72
     5
  1
Description of "b" S=1/1　
  7
スタイル１
 73
     1
 44
1.0
  0
LINE
  5
4E2
330
2
100
AcDbEntity
  8
AM_0
100
AcDbLine
 10
3366.57340669429
 20
3976.340026209344
 30
0.0
 11
3133.835893195989
 21
3976.340026209344
 31
0.0
  0
DIMENSION
  5
4E3
330
2
100
AcDbEntity
  8
AM_5
100
AcDbDimension
  2
*D58
 10
3137.615022269601
 20
4157.15936056323
 30
0.0
 11
3196.057655363897
 21
4181.445956337281
 31
0.0
 70
   165
 71
     5
 42
0.5235987755983014
  3
スタイル2
100
AcDb3PointAngularDimension
 13
3093.374486424665
 23
4034.808808215133
 33
0.0
 14
3133.80939153604
 24
3976.294123987827
 34
0.0
 15
3093.374486424665
 25
3906.2588139357
 35
0.0
1001
ACAD
1000
DSTYLE
1002
{
1070
   279
1070
     1
1070
   271
1070
     1
1070
   272
1070
     1
1002
}
  0
LWPOLYLINE
  5
4F3
330
2
100
AcDbEntity
  8
実線
100
AcDbPolyline
 90
        4
 70
     1
 43
0.0
 10
2943.374486424665
 20
3836.258813935696
 10
3243.374486424665
 20
3836.258813935696
 10
3243.374486424665
 20
3896.258813935696
 10
2943.374486424665
 20
3896.258813935696
  0
DIMENSION
  5
4F4
330
2
100
AcDbEntity
  8
AM_5
100
AcDbDimension
  2
*D57
 10
3053.058309653952
 20
3976.088480469503
 30
0.0
 11
3049.583529105322
 21
4157.238218204052
 31
0.0
 70
   162
 71
     5
 42
0.5235987755982956
  3
スタイル2
100
AcDb2LineAngularDimension
 13
3093.374486424665
 23
3812.686092783031
 33
0.0
 14
3093.374486424665
 24
4034.808808215133
 34
0.0
 15
3093.374486424665
 25
3906.2588139357
 35
0.0
 16
3006.23764102965
 26
4145.665329061013
 36
0.0
1001
ACAD
1000
DSTYLE
1002
{
1070
   271
1070
     1
1070
   272
1070
     1
1002
}
  0
HATCH
  5
505
330
2
100
AcDbEntity
  8
AM_8
100
AcDbHatch
 10
0.0
 20
0.0
 30
0.0
210
0.0
220
0.0
230
1.0
  2
LINE
 70
     0
 71
     1
 91
        2
 92
        7
 72
     1
 73
     1
 93
        3
 10
3093.374486424665
 20
3906.2588139357
 42
0.0
 10
3133.80939153604
 20
3976.294123987827
 42
0.1789349868809328
 10
3093.374486424665
 20
3991.110473510026
 42
0.0
 97
        3
330
506
330
509
330
508
 92
        7
 72
     1
 73
     1
 93
        3
 10
3093.374486424665
 20
3906.258813935701
 42
0.0
 10
3093.374486424665
 20
3991.110473510026
 42
0.1787574000081975
 10
3053.058309653952
 20
3976.088480469503
 42
0.0
 97
        3
330
506
330
507
330
509
 75
     0
 76
     1
 52
0.0
 41
5.0
 77
     0
 78
     1
 53
0.0
 43
-4321.771593731486
 44
930.2751894909379
 45
0.0
 46
15.875
 79
     0
 47
0.4112247681380894
 98
        2
 10
3104.670734073435
 20
3960.018360578636
 10
3070.938324776391
 20
3968.654091042983
  0
ARC
  5
506
102
{ACAD_REACTORS
330
505
102
}
330
2
100
AcDbEntity
  8
AM_8
100
AcDbCircle
 10
3093.553985670364
 20
3929.01725372474
 30
0.0
 40
62.09347923319418
100
AcDbArc
 50
49.58620219357195
 51
130.7056200319257
  0
LINE
  5
507
102
{ACAD_REACTORS
330
505
102
}
330
2
100
AcDbEntity
  8
AM_8
100
AcDbLine
 10
3093.374486424665
 20
3906.2588139357
 30
0.0
 11
3053.058309653952
 21
3976.088480469503
 31
0.0
  0
LINE
  5
508
102
{ACAD_REACTORS
330
505
102
}
330
2
100
AcDbEntity
  8
AM_8
100
AcDbLine
 10
3093.374486424665
 20
3906.2588139357
 30
0.0
 11
3133.80939153604
 21
3976.294123987827
 31
0.0
  0
LINE
  5
509
102
{ACAD_REACTORS
330
505
102
}
330
2
100
AcDbEntity
  8
AM_7
100
AcDbLine
 10
3093.374486424665
 20
3812.686092783031
 30
0.0
 11
3093.374486424665
 21
4034.808808215133
 31
0.0
  0
DIMENSION
  5
50A
330
2
100
AcDbEntity
  8
AM_5
100
AcDbDimension
  2
*D59
 10
3182.742166228454
 20
3906.2588139357
 30
0.0
 11
3160.242166228453
 21
3846.550692108285
 31
0.0
 70
    32
 71
     5
 42
1.000000000000363
  3
スタイル2
100
AcDbAlignedDimension
 13
3093.374486424665
 23
3896.258813935696
 33
0.0
 14
3093.374486424665
 24
3906.2588139357
 34
0.0
 50
90.0
100
AcDbRotatedDimension
1001
ACAD
1000
DSTYLE
1002
{
1070
   144
1040
0.1
1070
   280
1070
     1
1002
}
  0
LEADER
  5
519
330
2
100
AcDbEntity
  8
AM_5
100
AcDbLeader
  3
スタイル2
 73
     0
 74
     0
 75
     1
 40
41.21827411167512
 41
125.2538071065989
 76
     3
 10
3296.707256949201
 20
3976.796459249537
 30
0.0
 10
3480.099427707682
 20
4133.997783832819
 30
0.0
 10
3500.099427707683
 20
4133.997783832819
 30
0.0
340
51A
1001
ACAD
1000
DSTYLE
1002
{
1070
   147
1040
5.0
1070
    77
1070
     1
1070
   271
1070
     1
1070
   272
1070
     1
1002
}
  0
MTEXT
  5
51A
102
{ACAD_REACTORS
330
519
102
}
330
2
100
AcDbEntity
  8
AM_5
100
AcDbMText
 10
3505.099427707682
 20
4138.997783832819
 30
0.0
 40
35.0
 41
0.0
 71
     7
 72
     1
  1
Outer Wall-1
  7
スタイル１
 73
     1
 44
1.0
  0
CIRCLE
  5
51B
330
2
100
AcDbEntity
  8
AM_5
100
AcDbCircle
 10
3579.469293022301
 20
4086.22416944812
 30
0.0
 40
40.0
  0
DIMENSION
  5
51C
330
2
100
AcDbEntity
  8
AM_5
100
AcDbDimension
  2
*D56
 10
3460.830499950662
 20
3836.258813935696
 30
0.0
 11
3438.330499950661
 21
3866.258813935697
 31
0.0
 70
    32
 71
     5
 42
6.0
  3
スタイル2
100
AcDbAlignedDimension
 13
3361.468944155292
 23
3896.258813935696
 33
0.0
 14
3243.374486424665
 24
3836.258813935696
 34
0.0
 50
90.0
100
AcDbRotatedDimension
1001
ACAD
1000
DSTYLE
1002
{
1070
   144
1040
0.1
1070
   341
1005
4B9
1002
}
  0
DIMENSION
  5
529
330
2
100
AcDbEntity
  8
AM_5
100
AcDbDimension
  2
*D55
 10
3460.830499950662
 20
3896.38945241213
 30
0.0
 11
3438.330499950661
 21
3936.364739310738
 31
0.0
 70
    32
  1
t<>
 71
     5
 42
7.995057379721401
  3
スタイル2
100
AcDbAlignedDimension
 13
3366.573406694291
 23
3976.340026209344
 33
0.0
 14
3361.573474528894
 24
3896.38945241213
 34
0.0
 50
90.0
100
AcDbRotatedDimension
1001
ACAD
1000
DSTYLE
1002
{
1070
   144
1040
0.1
1002
}
  0
SPLINE
  5
536
330
2
100
AcDbEntity
  8
AM_8
100
AcDbSpline
210
0.0
220
0.0
230
1.0
 70
     8
 71
     3
 72
    10
 73
     6
 74
     4
 42
0.0000000001
 43
0.0000000001
 44
0.0000000001
 40
0.0
 40
0.0
 40
0.0
 40
0.0
 40
29.24857305496187
 40
67.2155525180544
 40
88.7228961041008
 40
88.7228961041008
 40
88.7228961041008
 40
88.7228961041008
 10
3366.573406694291
 20
3976.340026209345
 30
0.0
 10
3360.190129197654
 20
3967.324710860162
 30
0.0
 10
3345.520848648264
 20
3946.606797504829
 30
0.0
 10
3380.411901777657
 20
3919.932701872066
 30
0.0
 10
3366.499869240541
 20
3902.546193079901
 30
0.0
 10
3361.468944155294
 20
3896.258813935696
 30
0.0
 11
3366.573406694291
 21
3976.340026209345
 31
0.0
 11
3355.206391287179
 21
3949.390629435281
 31
0.0
 11
3371.683818024984
 21
3915.185572241189
 31
0.0
 11
3361.468944155294
 21
3896.258813935696
 31
0.0
  0
MTEXT
  5
537
330
2
100
AcDbEntity
  8
AM_5
100
AcDbMText
 10
3580.247621231347
 20
4089.978677818296
 30
0.0
 40
38.0
 41
0.0
 71
     5
 72
     1
  1
1-1
  7
スタイル１
 73
     1
 44
1.0
  0
MTEXT
  5
538
330
2
100
AcDbEntity
  8
AM_5
100
AcDbMText
 10
4612.780035407012
 20
4161.237838332481
 30
0.0
 40
34.99999999999999
 41
0.0
 71
     5
 72
     1
  1
184.5
  7
スタイル１
 11
0.9321359328117598
 21
0.3621085510743295
 31
0.0
 73
     1
 44
1.0
  0
DIMENSION
  5
539
330
2
100
AcDbEntity
  8
AM_5
100
AcDbDimension
  2
*D29
 10
4836.05958596193
 20
4463.047034034053
 30
0.0
 11
4865.783943554244
 21
4340.591286812822
 31
0.0
 70
   130
 71
     5
 42
0.523598775598285
  3
スタイル2
100
AcDb2LineAngularDimension
 13
4901.166610792463
 23
4580.815708970187
 33
0.0
 14
4901.166610792463
 24
4085.279506754967
 34
0.0
 15
4901.166610792463
 25
4575.815708970188
 35
0.0
 16
4819.810045635652
 26
4352.290383277454
 36
0.0
1001
ACAD
1000
DSTYLE
1002
{
1070
   144
1040
0.2
1070
   271
1070
     1
1070
   272
1070
     1
1070
   343
1005
20
1070
   344
1005
1DA
1002
}
  0
LINE
  5
549
330
2
100
AcDbEntity
  8
AM_5
 62
     2
100
AcDbLine
 10
4612.096158485992
 20
3836.22880304893
 30
0.0
 11
5332.408191124673
 21
4252.101148993399
 31
0.0
  0
LINE
  5
54A
330
2
100
AcDbEntity
  8
AM_7
100
AcDbLine
 10
5501.166610792463
 20
3770.663083842018
 30
0.0
 11
5501.166610792463
 21
4859.10956276043
 31
0.0
  0
LINE
  5
54C
330
2
100
AcDbEntity
  8
実線
100
AcDbLine
 10
4114.789918027866
 20
4181.226536231391
 30
0.0
 11
4121.280210657216
 21
4184.985020790748
 31
0.0
  0
LINE
  5
54D
330
2
100
AcDbEntity
  8
実線
100
AcDbLine
 10
4121.280210657206
 20
4184.985020790748
 30
0.0
 11
4126.3033146165
 21
4176.338146984906
 31
0.0
  0
DIMENSION
  5
54E
330
2
100
AcDbEntity
  8
AM_5
100
AcDbDimension
  2
*D26
 10
4176.431706116445
 20
4095.552289088693
 30
0.0
 11
4228.771141479088
 21
4154.509066769014
 31
0.0
 71
     5
 42
1.499305650669339
  3
スタイル2
100
AcDbAlignedDimension
 13
4119.813021987158
 23
4172.579662425549
 33
0.0
 14
4126.3033146165
 24
4176.338146984906
 34
0.0
 50
211.8199941437019
100
AcDbRotatedDimension
1001
ACAD
1000
DSTYLE
1002
{
1070
   144
1040
0.2
1070
   173
1070
     1
1070
   271
1070
     1
1070
   272
1070
     1
1070
   342
1005
0
1070
   343
1005
1C9
1070
   344
1005
20
1002
}
  0
LINE
  5
55C
330
2
100
AcDbEntity
  8
実線
100
AcDbLine
 10
3998.497427394333
 20
4216.35931138683
 30
0.0
 11
4041.99574586112
 21
4146.258339278291
 31
0.0
  0
DIMENSION
  5
55D
330
2
100
AcDbEntity
  8
AM_5
100
AcDbDimension
  2
*D18
 10
4207.771689037492
 20
4223.664397292164
 30
0.0
 11
4195.048692173645
 21
4290.359044870485
 31
0.0
 70
     1
 71
     5
 42
1.999999999999363
  3
スタイル2
100
AcDbAlignedDimension
 13
4121.280210657216
 23
4184.985020790747
 33
0.0
 14
4126.3033146165
 24
4176.338146984906
 34
0.0
1001
ACAD
1000
DSTYLE
1002
{
1070
   144
1040
0.2
1070
   271
1070
     1
1070
   272
1070
     1
1070
   280
1070
     1
1070
   343
1005
1C9
1070
   344
1005
20
1002
}
  0
ARC
  5
56C
330
2
100
AcDbEntity
  8
AM_5
 62
     2
100
AcDbCircle
 10
5501.166610792463
 20
1794.689365819183
 30
0.0
 40
2499.240746757545
100
AcDbArc
 50
103.890843634897
 51
121.8181492896145
  0
ARC
  5
56D
330
2
100
AcDbEntity
  8
実線
100
AcDbCircle
 10
5501.166610792463
 20
1794.689365819183
 30
0.0
 40
2750.0
100
AcDbArc
 50
103.9961738602844
 51
119.9967112355119
  0
MTEXT
  5
56E
330
2
100
AcDbEntity
  8
AM_6
100
AcDbMText
 10
4587.470728771626
 20
3583.201160640394
 30
0.0
 40
45.0
 41
0.0
 71
     5
 72
     5
  1
Description of Inner Wall-1 S=1/2
  7
スタイル１
 73
     1
 44
1.0
  0
LINE
  5
56F
330
2
100
AcDbEntity
  8
AM_6
100
AcDbLine
 10
4005.469827821591
 20
3549.486300647084
 30
0.0
 11
5091.2695910303
 21
3549.486300647084
 31
0.0
  0
CIRCLE
  5
570
330
2
100
AcDbEntity
  8
AM_6
100
AcDbCircle
 10
4049.136497683246
 20
3589.486300647084
 30
0.0
 40
40.0
  0
MTEXT
  5
571
330
2
100
AcDbEntity
  8
AM_6
100
AcDbMText
 10
4049.914825892292
 20
3593.240809017261
 30
0.0
 40
38.0
 41
0.0
 71
     5
 72
     1
  1
2-1
  7
スタイル１
 73
     1
 44
1.0
  0
DIMENSION
  5
572
330
2
100
AcDbEntity
  8
AM_5
100
AcDbDimension
  2
*D25
 10
4170.061840443735
 20
4091.599726987368
 30
0.0
 11
4192.044135236453
 21
4061.230725041765
 31
0.0
 70
   128
 71
     5
 42
0.9999999999992724
  3
スタイル2
100
AcDbAlignedDimension
 13
4115.490154023082
 23
4170.063180012448
 33
0.0
 14
4119.813021987158
 24
4172.579662425549
 34
0.0
 50
211.8199941437019
100
AcDbRotatedDimension
1001
ACAD
1000
DSTYLE
1002
{
1070
   144
1040
0.2
1070
   174
1070
     1
1070
   271
1070
     1
1070
   272
1070
     1
1070
   279
1070
     2
1070
   289
1070
     3
1070
   342
1005
1DA
1002
}
  0
DIMENSION
  5
581
330
2
100
AcDbEntity
  8
AM_5
100
AcDbDimension
  2
*D23
 10
4144.696071229749
 20
4075.721645787512
 30
0.0
 11
4047.228777412929
 21
4015.242264988405
 31
0.0
 70
   129
 71
     5
 42
10.01494566581386
  3
スタイル2
100
AcDbAlignedDimension
 13
4050.144709653415
 23
4133.125641195873
 33
0.0
 14
4092.693644610247
 24
4159.527659135215
 34
0.0
1001
ACAD
1000
DSTYLE
1002
{
1070
   144
1040
0.2
1070
   173
1070
     1
1070
   271
1070
     1
1070
   272
1070
     1
1070
   342
1005
0
1070
   343
1005
20
1070
   344
1005
1DA
1002
}
  0
DIMENSION
  5
590
330
2
100
AcDbEntity
  8
AM_5
100
AcDbDimension
  2
*D24
 10
4165.813296679583
 20
4088.96346526211
 30
0.0
 11
4143.36050816317
 21
4101.510958231018
 31
0.0
 71
     5
 42
4.985054334187953
  3
スタイル2
100
AcDbAlignedDimension
 13
4092.693644610247
 23
4159.527659135215
 33
0.0
 14
4115.490154023082
 24
4170.063180012448
 34
0.0
 50
211.8199941437019
100
AcDbRotatedDimension
1001
ACAD
1000
DSTYLE
1002
{
1070
   144
1040
0.2
1070
   174
1070
     1
1070
   271
1070
     1
1070
   272
1070
     1
1070
   279
1070
     2
1070
   289
1070
     3
1070
   342
1005
1C9
1070
   343
1005
1C9
1070
   344
1005
1DA
1002
}
  0
LINE
  5
59D
330
2
100
AcDbEntity
  8
AM_5
 62
     2
100
AcDbLine
 10
4107.419659723436
 20
4040.822540319864
 30
0.0
 11
4189.240830525523
 21
3909.125401452715
 31
0.0
  0
DIMENSION
  5
59E
330
2
100
AcDbEntity
  8
AM_5
100
AcDbDimension
  2
*D21
 10
3883.03500814958
 20
4047.621692956517
 30
0.0
 11
3873.649711561388
 21
4105.420902281855
 31
0.0
 71
     5
 42
3.0
  3
スタイル2
100
AcDbAlignedDimension
 13
4049.9045310369
 23
4133.512707985829
 33
0.0
 14
4041.99574586112
 24
4146.258339278291
 34
0.0
 50
301.8199941436544
100
AcDbRotatedDimension
1001
ACAD
1000
DSTYLE
1002
{
1070
   144
1040
0.2
1070
   173
1070
     1
1070
   271
1070
     1
1070
   272
1070
     1
1070
   289
1070
     3
1070
   342
1005
0
1070
   343
1005
59F
1070
   344
1005
20
1002
}
  0
DIMENSION
  5
5B1
330
2
100
AcDbEntity
  8
AM_5
100
AcDbDimension
  2
*D20
 10
3890.943793325424
 20
4034.87606166395
 30
0.0
 11
3957.91641249523
 21
3969.61846531283
 31
0.0
 70
     1
  1
t<>
 71
     5
 42
0.5
  3
スタイル2
100
AcDbAlignedDimension
 13
4051.222661899529
 23
4131.388436103753
 33
0.0
 14
4049.9045310369
 24
4133.512707985829
 34
0.0
1001
ACAD
1000
DSTYLE
1002
{
1070
   144
1040
0.2
1070
   173
1070
     1
1070
   271
1070
     1
1070
   272
1070
     1
1070
   280
1070
     1
1070
   289
1070
     3
1070
   342
1005
0
1070
   343
1005
20
1070
   344
1005
1C9
1002
}
  0
LINE
  5
5BF
330
2
100
AcDbEntity
  8
AM_5
 62
     2
100
AcDbLine
 10
4047.268269311637
 20
4137.761251749984
 30
0.0
 11
4055.417233103933
 21
4124.628553667565
 31
0.0
  0
LINE
  5
5C0
330
2
100
AcDbEntity
  8
実線
100
AcDbLine
 10
4114.230448153294
 20
4172.222610752625
 30
0.0
 11
4115.490154023082
 21
4170.063180012448
 31
0.0
  0
ARC
  5
5C1
330
2
100
AcDbEntity
  8
実線
100
AcDbCircle
 10
5501.166610792463
 20
1794.689365819183
 30
0.0
 40
2750.0
100
AcDbArc
 50
120.1529726460786
 51
120.2571881980337
  0
LINE
  5
5C2
330
2
100
AcDbEntity
  8
実線
100
AcDbLine
 10
4114.789918027866
 20
4181.226536231386
 30
0.0
 11
4119.813021987158
 21
4172.579662425549
 31
0.0
  0
LINE
  5
5C3
330
2
100
AcDbEntity
  8
実線
100
AcDbLine
 10
4041.995745861123
 20
4146.258339278293
 30
0.0
 11
4092.693644610253
 21
4159.527659135222
 31
0.0
  0
ARC
  5
5C4
330
2
100
AcDbEntity
  8
実線
100
AcDbCircle
 10
5501.166610792461
 20
1794.689365819183
 30
0.0
 40
2752.5
100
AcDbArc
 50
120.2571881980336
 51
120.7775858321214
  0
LINE
  5
5C6
330
2
100
AcDbEntity
  8
AM_5
 62
     2
370
    -2
380
     1
100
AcDbLine
 10
4203.278640563381
 20
3924.498556453365
 30
0.0
 11
4183.504445083754
 21
3918.358531982558
 31
0.0
  0
LINE
  5
5C7
330
2
100
AcDbEntity
  8
AM_5
 62
     2
370
    -2
380
     1
100
AcDbLine
 10
4183.504445083754
 20
3918.358531982558
 30
0.0
 11
4197.559388542082
 21
3933.563046830188
 31
0.0
  0
LINE
  5
5C8
330
2
100
AcDbEntity
  8
細線
100
AcDbLine
 10
4474.832019093399
 20
5124.117028716057
 30
0.0
 11
4921.166610792466
 21
5124.117028716057
 31
0.0
  0
LINE
  5
5C9
330
2
100
AcDbEntity
  8
細線
100
AcDbLine
 10
4474.832019093399
 20
5204.117028716057
 30
0.0
 11
4921.166610792466
 21
5204.117028716057
 31
0.0
  0
LINE
  5
5CA
330
2
100
AcDbEntity
  8
実線
100
AcDbLine
 10
3998.497427394333
 20
4820.6379995479
 30
0.0
 11
4901.166610792467
 21
4820.6379995479
 31
0.0
  0
ARC
  5
5CB
330
2
100
AcDbEntity
  8
実線
100
AcDbCircle
 10
5501.166610792463
 20
1794.689365819183
 30
0.0
 40
2850.0
100
AcDbArc
 50
102.1531974690078
 51
121.819994143691
  0
DIMENSION
  5
5CC
330
2
100
AcDbEntity
  8
AM_5
100
AcDbDimension
  2
*D19
 10
4403.169551489934
 20
4315.979205913536
 30
0.0
 11
4403.834703648843
 21
4370.804451673182
 31
0.0
 70
     1
 71
     5
 42
19.99999999999991
  3
スタイル2
100
AcDbAlignedDimension
 13
4363.242385697116
 23
4407.662472826057
 33
0.0
 14
4403.169551489934
 24
4315.979205913536
 34
0.0
1001
ACAD
1000
DSTYLE
1002
{
1070
   144
1040
0.2
1070
   271
1070
     1
1070
   272
1070
     1
1070
   343
1005
1C9
1070
   344
1005
20
1002
}
  0
LINE
  5
5D7
330
2
100
AcDbEntity
  8
細線
100
AcDbLine
 10
3978.497427394333
 20
5124.117028716057
 30
0.0
 11
4424.8320190934
 21
5124.117028716057
 31
0.0
  0
LINE
  5
5D8
330
2
100
AcDbEntity
  8
細線
100
AcDbLine
 10
3978.497427394333
 20
5204.117028716057
 30
0.0
 11
4424.8320190934
 21
5204.117028716057
 31
0.0
  0
LINE
  5
5D9
330
2
100
AcDbEntity
  8
AM_3
100
AcDbLine
 10
4092.693644610253
 20
5124.117028716057
 30
0.0
 11
4092.693644610253
 21
4820.6379995479
 31
0.0
  0
LINE
  5
5DA
330
2
100
AcDbEntity
  8
AM_3
100
AcDbLine
 10
4114.789918027865
 20
5124.117028716057
 30
0.0
 11
4114.789918027866
 21
4820.6379995479
 31
0.0
  0
LINE
  5
5DB
330
2
100
AcDbEntity
  8
AM_3
100
AcDbLine
 10
4114.230448153293
 20
5124.117028716057
 30
0.0
 11
4114.230448153294
 21
4820.6379995479
 31
0.0
  0
LINE
  5
5DC
330
2
100
AcDbEntity
  8
AM_3
100
AcDbLine
 10
4121.28021065721
 20
5124.117028716057
 30
0.0
 11
4121.28021065721
 21
4820.6379995479
 31
0.0
  0
LINE
  5
5DD
330
2
100
AcDbEntity
  8
AM_3
100
AcDbLine
 10
4126.3033146165
 20
5124.117028716057
 30
0.0
 11
4126.3033146165
 21
4820.6379995479
 31
0.0
  0
LINE
  5
5DE
330
2
100
AcDbEntity
  8
実線
100
AcDbLine
 10
3998.497427394333
 20
4820.6379995479
 30
0.0
 11
3998.497427394333
 21
5124.117028716057
 31
0.0
  0
LWPOLYLINE
  5
5DF
330
2
100
AcDbEntity
  8
細線
100
AcDbPolyline
 90
        4
 70
     0
 43
0.0
 10
4474.8320190934
 20
5124.117028716056
 10
4449.8320190934
 20
5149.117028716055
 10
4449.8320190934
 20
5099.117028716055
 10
4424.8320190934
 20
5124.117028716056
  0
LWPOLYLINE
  5
5E0
330
2
100
AcDbEntity
  8
細線
100
AcDbPolyline
 90
        4
 70
     0
 43
0.0
 10
4474.8320190934
 20
5204.117028716056
 10
4449.8320190934
 20
5229.117028716056
 10
4449.8320190934
 20
5179.117028716056
 10
4424.8320190934
 20
5204.117028716056
  0
DIMENSION
  5
5E1
330
2
100
AcDbEntity
  8
AM_5
100
AcDbDimension
  2
*D28
 10
5501.166610792463
 20
4709.318073572693
 30
0.0
 11
5201.166610792463
 21
4731.818073572692
 31
0.0
 71
     5
 42
120.0
  3
スタイル2
100
AcDbAlignedDimension
 13
4901.166610792463
 23
4580.815708970191
 33
0.0
 14
5501.166610792463
 24
4696.821681097389
 34
0.0
100
AcDbRotatedDimension
1001
ACAD
1000
DSTYLE
1002
{
1070
   144
1040
0.2
1070
   271
1070
     1
1070
   272
1070
     1
1070
   343
1005
20
1070
   344
1005
1DA
1002
}
  0
DIMENSION
  5
5EE
330
2
100
AcDbEntity
  8
AM_5
100
AcDbDimension
  2
*D27
 10
5075.060921099053
 20
4575.815708970188
 30
0.0
 11
5052.560921099052
 21
4526.107587142777
 31
0.0
 71
     5
 42
1.000000000000545
  3
スタイル2
100
AcDbAlignedDimension
 13
4901.166610792463
 23
4580.815708970191
 33
0.0
 14
4901.166610792463
 24
4575.815708970188
 34
0.0
 50
90.0
100
AcDbRotatedDimension
1001
ACAD
1000
DSTYLE
1002
{
1070
   144
1040
0.2
1070
   271
1070
     1
1070
   272
1070
     1
1070
   343
1005
20
1070
   344
1005
1DA
1002
}
  0
LINE
  5
5FD
330
2
100
AcDbEntity
  8
AM_5
 62
     2
100
AcDbLine
 10
4901.166610792463
 20
4565.815708970188
 30
0.0
 11
4901.166610787627
 21
4210.839466338022
 31
0.0
  0
LINE
  5
5FE
330
2
100
AcDbEntity
  8
AM_5
 62
     2
370
    -2
380
     1
100
AcDbLine
 10
4901.16661079351
 20
4220.839466339774
 30
0.0
 11
4883.101111752162
 21
4210.722329800431
 31
0.0
  0
LINE
  5
5FF
330
2
100
AcDbEntity
  8
AM_5
 62
     2
370
    -2
380
     1
100
AcDbLine
 10
4880.462861420759
 20
4221.110518509899
 30
0.0
 11
4901.16661079351
 21
4220.839466339774
 31
0.0
  0
LINE
  5
600
330
2
100
AcDbEntity
  8
実線
100
AcDbLine
 10
4901.166610792463
 20
4575.815708970188
 30
0.0
 11
4836.05958596193
 21
4463.047034034053
 31
0.0
  0
LINE
  5
601
330
2
100
AcDbEntity
  8
実線
100
AcDbLine
 10
4901.166610792463
 20
4580.815708970187
 30
0.0
 11
4901.166610792463
 21
4575.815708970188
 31
0.0
  0
LINE
  5
602
330
2
100
AcDbEntity
  8
AM_3
100
AcDbLine
 10
4836.059585961676
 20
5124.117028716056
 30
0.0
 11
4836.059585961675
 21
4820.6379995479
 31
0.0
  0
LINE
  5
603
330
2
100
AcDbEntity
  8
実線
100
AcDbLine
 10
4901.166610792467
 20
4820.6379995479
 30
0.0
 11
4901.166610792467
 21
5124.117028716057
 31
0.0
  0
LINE
  5
604
330
2
100
AcDbEntity
  8
AM_7
100
AcDbLine
 10
5501.166610792463
 20
4859.10956276043
 30
0.0
 11
5501.166610792463
 21
4859.10956276043
 31
0.0
  0
MTEXT
  5
605
330
2
100
AcDbEntity
  8
AM_5
100
AcDbMText
 10
5502.009174619185
 20
4897.175840695513
 30
0.0
 40
45.0
 41
0.0
 71
     5
 72
     5
  1
L
  7
スタイル１
 73
     1
 44
1.0
  0
MTEXT
  5
606
330
2
100
AcDbEntity
  8
AM_5
100
AcDbMText
 10
5483.222826122258
 20
4907.127504778846
 30
0.0
 40
45.0
 41
0.0
 71
     5
 72
     5
  1
ｃ
  7
スタイル１
 73
     1
 44
1.0
  0
MTEXT
  5
608
330
2
100
AcDbEntity
  8
AM_5
100
AcDbMText
 10
2117.067660057914
 20
5642.335922220933
 30
0.0
 40
45.0
 41
0.0
 71
     5
 72
     5
  1
L
  7
スタイル１
 73
     1
 44
1.0
  0
MTEXT
  5
609
330
2
100
AcDbEntity
  8
AM_5
100
AcDbMText
 10
2098.281311560986
 20
5652.287586304264
 30
0.0
 40
45.0
 41
0.0
 71
     5
 72
     5
  1
ｃ
  7
スタイル１
 73
     1
 44
1.0
  0
LINE
  5
60B
330
2
100
AcDbEntity
  8
実線
100
AcDbLine
 10
3998.497427394333
 20
5507.596057884214
 30
0.0
 11
4901.166610792467
 21
5507.596057884214
 31
0.0
  0
DIMENSION
  5
60C
330
2
100
AcDbEntity
  8
AM_5
100
AcDbDimension
  2
*D33
 10
7409.380767720382
 20
4585.406080789978
 30
0.0
 11
7335.172813719498
 21
4634.106896776091
 31
0.0
 70
   129
  1
t<>
 71
     5
 42
0.4999999999995453
  3
スタイル2
100
AcDbAlignedDimension
 13
7408.940351030776
 23
4585.646288042763
 33
0.0
 14
7409.358370215787
 24
4585.371952552963
 34
0.0
1001
ACAD
1000
DSTYLE
1002
{
1070
   280
1070
     1
1002
}
  0
MTEXT
  5
61B
330
2
100
AcDbEntity
  8
AM_6
100
AcDbMText
 10
7225.637176504239
 20
3583.201160640394
 30
0.0
 40
45.0
 41
0.0
 71
     5
 72
     5
  1
Description of Inner Wall-2 S=1/10
  7
スタイル１
 73
     1
 44
1.0
  0
LINE
  5
61C
330
2
100
AcDbEntity
  8
AM_6
100
AcDbLine
 10
6613.582361473487
 20
3549.486300647084
 30
0.0
 11
7747.855394888938
 21
3549.486300647084
 31
0.0
  0
ARC
  5
61D
330
2
100
AcDbEntity
  8
AM_0
100
AcDbCircle
 10
7869.179473726994
 20
4283.602913773743
 30
0.0
 40
550.4999999999999
100
AcDbArc
 50
120.2571881980338
 51
239.7428118019662
  0
ARC
  5
61E
330
2
100
AcDbEntity
  8
AM_0
100
AcDbCircle
 10
7869.179473726994
 20
4283.602913773743
 30
0.0
 40
550.0
100
AcDbArc
 50
120.2571881980338
 51
239.7428118019662
  0
ARC
  5
61F
330
2
100
AcDbEntity
  8
AM_5
 62
     2
100
AcDbCircle
 10
7869.179473726994
 20
4283.602913773743
 30
0.0
 40
650.0
100
AcDbArc
 50
120.2571881980338
 51
239.742811801966
  0
LINE
  5
620
330
2
100
AcDbEntity
  8
AM_7
100
AcDbLine
 10
5743.30954231554
 20
4283.602913773743
 30
0.0
 11
7969.179473726994
 21
4283.602913773743
 31
0.0
  0
LINE
  5
621
330
2
100
AcDbEntity
  8
AM_0
100
AcDbLine
 10
7113.309542315541
 20
3808.096264787055
 30
0.0
 11
7113.309542315541
 21
4759.10956276043
 31
0.0
  0
LINE
  5
622
330
2
100
AcDbEntity
  8
AM_0
100
AcDbLine
 10
5843.309542315541
 20
3808.096264787055
 30
0.0
 11
5843.309542315541
 21
4759.10956276043
 31
0.0
  0
LINE
  5
623
330
2
100
AcDbEntity
  8
AM_0
100
AcDbLine
 10
7113.309542315541
 20
3808.096264787055
 30
0.0
 11
5843.309542315541
 21
3808.096264787055
 31
0.0
  0
LINE
  5
624
330
2
100
AcDbEntity
  8
AM_3
100
AcDbLine
 10
7113.309542315541
 20
3808.528150935091
 30
0.0
 11
5843.309542315541
 21
3808.528150935091
 31
0.0
  0
MTEXT
  5
625
330
2
100
AcDbEntity
  8
AM_6
100
AcDbMText
 10
6662.792428989715
 20
3593.240809017261
 30
0.0
 40
38.0
 41
0.0
 71
     5
 72
     1
  1
2-2
  7
スタイル１
 73
     1
 44
1.0
  0
CIRCLE
  5
626
330
2
100
AcDbEntity
  8
AM_6
100
AcDbCircle
 10
6662.01410078067
 20
3589.486300647084
 30
0.0
 40
40.0
  0
LINE
  5
627
330
2
100
AcDbEntity
  8
AM_0
100
AcDbLine
 10
7113.309542315541
 20
4759.10956276043
 30
0.0
 11
5843.309542315541
 21
4759.10956276043
 31
0.0
  0
LINE
  5
628
330
2
100
AcDbEntity
  8
AM_3
100
AcDbLine
 10
7113.309542315541
 20
4758.677676612395
 30
0.0
 11
5843.309542315541
 21
4758.677676612395
 31
0.0
  0
DIMENSION
  5
629
330
2
100
AcDbEntity
  8
AM_5
100
AcDbDimension
  2
*D31
 10
7113.309542315541
 20
4937.562934770539
 30
0.0
 11
6478.309542315542
 21
4960.06293477054
 31
0.0
 71
     5
 42
1270.0
  3
スタイル2
100
AcDbAlignedDimension
 13
5843.309542315541
 23
4759.10956276043
 33
0.0
 14
7113.309542315541
 24
4759.10956276043
 34
0.0
100
AcDbRotatedDimension
  0
MTEXT
  5
636
330
2
100
AcDbEntity
  8
AM_5
100
AcDbMText
 10
7209.856342721157
 20
4404.788486852324
 30
0.0
 40
34.99999999999998
 41
0.0
 71
     5
 72
     1
  1
1148.02
  7
スタイル１
 11
0.1564344650402309
 21
0.9876883405951378
 31
0.0
 73
     1
 44
1.0
  0
LINE
  5
637
330
2
100
AcDbEntity
  8
AM_7
100
AcDbLine
 10
7869.179473726994
 20
4859.10956276043
 30
0.0
 11
7869.179473726994
 21
3708.52815093509
 31
0.0
  0
LINE
  5
638
330
2
100
AcDbEntity
  8
AM_5
 62
     2
100
AcDbLine
 10
7536.617124102342
 20
3713.513198367359
 30
0.0
 11
7586.753417719998
 21
3799.458541826352
 31
0.0
  0
LINE
  5
639
330
2
100
AcDbEntity
  8
AM_5
 62
     2
380
     1
100
AcDbLine
 10
7541.655947581499
 20
3722.150921328226
 30
0.0
 11
7527.359121110165
 21
3737.128219489684
 31
0.0
  0
LINE
  5
63A
330
2
100
AcDbEntity
  8
AM_5
 62
     2
380
     1
100
AcDbLine
 10
7521.785883609512
 20
3727.973228870576
 30
0.0
 11
7541.655947581499
 21
3722.150921328226
 31
0.0
  0
LINE
  5
63B
330
2
100
AcDbEntity
  8
AM_0
100
AcDbLine
 10
7591.79224119916
 20
3808.096264787055
 30
0.0
 11
7592.044182373118
 21
3808.528150935091
 31
0.0
  0
DIMENSION
  5
63C
330
2
100
AcDbEntity
  8
AM_5
100
AcDbDimension
  2
*D32
 10
7869.179473726996
 20
4283.60291377374
 30
0.0
 11
7639.835409065878
 21
4434.115661914321
 31
0.0
 70
   132
 71
     5
 42
550.0000000000023
  3
スタイル2$4
100
AcDbRadialDimension
 15
7409.35837021579
 25
4585.371952552967
 35
0.0
 40
0.0
  0
MTEXT
  5
645
330
2
100
AcDbEntity
  8
AM_5
100
AcDbMText
 10
8013.725232753559
 20
4287.094671460059
 30
0.0
 40
45.0
 41
0.0
 71
     5
 72
     5
  1
L
  7
スタイル１
 73
     1
 44
1.0
  0
MTEXT
  5
646
330
2
100
AcDbEntity
  8
AM_5
100
AcDbMText
 10
7994.938884256632
 20
4297.046335543391
 30
0.0
 40
45.0
 41
0.0
 71
     5
 72
     5
  1
ｃ
  7
スタイル１
 73
     1
 44
1.0
  0
LINE
  5
647
330
2
100
AcDbEntity
  8
AM_5
 62
     2
100
AcDbLine
 10
7536.617124102342
 20
4853.692629180125
 30
0.0
 11
7586.753417719998
 21
4767.747285721132
 31
0.0
  0
LINE
  5
648
330
2
100
AcDbEntity
  8
AM_5
 62
     2
380
     1
100
AcDbLine
 10
7521.785883609512
 20
4839.232598676908
 30
0.0
 11
7541.655947581499
 21
4845.054906219258
 31
0.0
  0
LINE
  5
649
330
2
100
AcDbEntity
  8
AM_5
 62
     2
380
     1
100
AcDbLine
 10
7541.655947581499
 20
4845.054906219258
 30
0.0
 11
7527.359121110165
 21
4830.077608057801
 31
0.0
  0
LINE
  5
64A
330
2
100
AcDbEntity
  8
AM_0
100
AcDbLine
 10
7591.79224119916
 20
4759.10956276043
 30
0.0
 11
7592.044182373118
 21
4758.677676612395
 31
0.0
  0
LINE
  5
64B
330
2
100
AcDbEntity
  8
AM_7
100
AcDbLine
 10
7869.179473726994
 20
4859.10956276043
 30
0.0
 11
7869.179473726994
 21
4859.10956276043
 31
0.0
  0
MTEXT
  5
64C
330
2
100
AcDbEntity
  8
AM_5
100
AcDbMText
 10
7870.022037553717
 20
4897.175840695513
 30
0.0
 40
45.0
 41
0.0
 71
     5
 72
     5
  1
L
  7
スタイル１
 73
     1
 44
1.0
  0
MTEXT
  5
64D
330
2
100
AcDbEntity
  8
AM_5
100
AcDbMText
 10
7851.235689056789
 20
4907.127504778846
 30
0.0
 40
45.0
 41
0.0
 71
     5
 72
     5
  1
ｃ
  7
スタイル１
 73
     1
 44
1.0
  0
CIRCLE
  5
6AF
330
2
100
AcDbEntity
  8
AM_0
100
AcDbCircle
 10
1421.568151058647
 20
5439.672662317305
 30
0.0
 40
17.0
  0
CIRCLE
  5
6B0
330
2
100
AcDbEntity
  8
AM_0
100
AcDbCircle
 10
1421.568151058647
 20
4479.672662317305
 30
0.0
 40
17.0
  0
LINE
  5
6B1
330
2
100
AcDbEntity
  8
AM_7
 48
0.5
100
AcDbLine
 10
1421.568151058647
 20
5368.672662317305
 30
0.0
 11
1421.568151058647
 21
4550.672662317305
 31
0.0
  0
LINE
  5
6C7
330
2
100
AcDbEntity
  8
AM_5
 62
     2
100
AcDbLine
 10
4611.685829696788
 20
3835.991899612025
 30
0.0
 11
4410.625803694473
 21
4297.412032846849
 31
0.0
  0
INSERT
  5
6C8
330
2
100
AcDbEntity
  8
AM_5
 62
     2
100
AcDbBlockReference
  2
_Open30
 10
4402.636493752363
 20
4315.746997440458
 30
0.0
 41
20.0
 42
20.0
 43
20.0
 50
113.5447683750507
  0
MTEXT
  5
6C9
330
2
100
AcDbEntity
  8
AM_5
100
AcDbMText
 10
4483.058842150554
 20
4187.508023381428
 30
0.0
 40
35.0
 41
0.0
 71
     5
 72
     1
  1
\A1;R550
  7
スタイル１
 11
0.3994654971054902
 21
-0.9167482296804633
 31
0.0
 73
     1
 44
1.0
  0
DIMENSION
  5
705
330
2
100
AcDbEntity
  8
AM_5
100
AcDbDimension
  2
*D61
 10
2001.225096231141
 20
4033.248052511109
 30
0.0
 11
2058.725096231166
 21
4055.748052511109
 31
0.0
 70
    32
 71
     5
 42
115.0000000000509
  3
スタイル2
100
AcDbAlignedDimension
 13
2116.225096231191
 23
4012.905190223509
 33
0.0
 14
2001.225096231141
 24
3431.492292964679
 34
0.0
100
AcDbRotatedDimension
  0
DIMENSION
  5
712
330
2
100
AcDbEntity
  8
AM_5
100
AcDbDimension
  2
*D62
 10
1701.225096231242
 20
4144.350380744667
 30
0.0
 11
1908.725096231217
 21
4166.850380744667
 31
0.0
 70
    32
 71
     5
 42
414.999999999949
  3
スタイル2
100
AcDbAlignedDimension
 13
2116.225096231191
 23
4141.504971611948
 33
0.0
 14
1701.225096231242
 24
4141.504971611948
 34
0.0
100
AcDbRotatedDimension
  0
DIMENSION
  5
71F
330
2
100
AcDbEntity
  8
AM_5
100
AcDbDimension
  2
*D63
 10
2116.22509623119
 20
440.6027875287077
 30
0.0
 11
2058.725096231165
 21
463.1027875287077
 31
0.0
 70
    32
 71
     5
 42
115.0000000000497
  3
スタイル2
100
AcDbAlignedDimension
 13
2001.22509623114
 23
1042.538547075068
 33
0.0
 14
2116.22509623119
 24
453.07864876042
 34
0.0
100
AcDbRotatedDimension
  0
CIRCLE
  5
785
330
2
100
AcDbEntity
  8
AM_5
100
AcDbCircle
 10
5428.141319363132
 20
2824.506657257219
 30
0.0
 40
78.08611492838645
  0
LEADER
  5
78A
330
2
100
AcDbEntity
  8
AM_5
100
AcDbLeader
  3
スタイル2
 73
     0
 74
     0
 75
     1
 40
45.0
 41
81.54822335025379
 76
     3
 10
5476.377762392049
 20
2885.912576422454
 30
0.0
 10
5600.307982866842
 20
3048.791148016738
 30
0.0
 10
5620.307982866841
 20
3048.791148016738
 30
0.0
340
78B
1001
ACAD
1000
DSTYLE
1002
{
1070
   147
1040
5.0
1070
    77
1070
     1
1070
   271
1070
     1
1070
   272
1070
     1
1002
}
  0
MTEXT
  5
78B
102
{ACAD_REACTORS
330
78A
102
}
330
2
100
AcDbEntity
  8
AM_5
100
AcDbMText
 10
5625.307982866842
 20
3053.791148016738
 30
0.0
 40
45.0
 41
0.0
 71
     7
 72
     1
  1
"a"
  7
スタイル１
 73
     1
 44
1.0
  0
LINE
  5
78E
330
2
100
AcDbEntity
  8
AM_2
100
AcDbLine
 10
4995.519761809159
 20
2824.506657257219
 30
0.0
 11
4995.519761809159
 21
2527.575672694473
 31
0.0
  0
LINE
  5
78F
330
2
100
AcDbEntity
  8
AM_2
100
AcDbLine
 10
4845.51976180914
 20
2824.506657257219
 30
0.0
 11
4995.519761809159
 21
2824.506657257219
 31
0.0
  0
ARC
  5
791
330
2
100
AcDbEntity
  8
AM_2
100
AcDbCircle
 10
5995.51976180914
 20
-9039.889661140106
 30
0.0
 40
11920.0
100
AcDbArc
 50
95.53630800522324
 51
95.77781905541913
  0
LINE
  5
792
330
2
100
AcDbEntity
  8
AM_2
100
AcDbLine
 10
4795.519761809159
 20
2819.553833392014
 30
0.0
 11
4795.519761809159
 21
2527.575672694473
 31
0.0
  0
SPLINE
  5
793
330
2
100
AcDbEntity
  8
細線
100
AcDbSpline
210
0.0
220
0.0
230
1.0
 70
     8
 71
     3
 72
    12
 73
     8
 74
     6
 42
0.0000000001
 43
0.0000000001
 44
0.0000000001
 40
0.0
 40
0.0
 40
0.0
 40
0.0
 40
35.83411887734953
 40
70.15364569494296
 40
114.219977027844
 40
183.2095400488096
 40
205.6779161404552
 40
205.6779161404552
 40
205.6779161404552
 40
205.6779161404552
 10
4795.519761809159
 20
2527.575672694473
 30
0.0
 10
4807.065250733927
 20
2533.304429749839
 30
0.0
 10
4829.668238187734
 20
2544.519807867832
 30
0.0
 10
4865.250810236858
 20
2517.272829336776
 30
0.0
 10
4913.598785070635
 20
2549.307089751797
 30
0.0
 10
4957.974155457396
 20
2518.953406437597
 30
0.0
 10
4988.115073940619
 20
2525.875202345067
 30
0.0
 10
4995.519761809159
 20
2527.575672694473
 30
0.0
 11
4795.519761809159
 21
2527.575672694473
 31
0.0
 11
4829.961000621643
 21
2537.469364865623
 31
0.0
 11
4862.462850110208
 21
2526.448489183259
 31
0.0
 11
4905.411733964418
 21
2536.309266678907
 31
0.0
 11
4973.31743093768
 21
2524.128292809828
 31
0.0
 11
4995.519761809159
 21
2527.575672694473
 31
0.0
  0
DIMENSION
  5
794
330
2
100
AcDbEntity
  8
AM_5
100
AcDbDimension
  2
*D71
 10
4845.519761809115
 20
3085.661629932609
 30
0.0
 11
4741.458848103573
 21
3108.161629932609
 31
0.0
 70
    32
 71
     5
 42
4.999999999995816
  3
スタイル2
100
AcDbAlignedDimension
 13
4795.519761809157
 23
2819.553833392007
 33
0.0
 14
4845.519761809115
 24
2824.506657257218
 34
0.0
100
AcDbRotatedDimension
1001
ACAD
1000
DSTYLE
1002
{
1070
   144
1040
0.1
1070
   271
1070
     1
1070
   272
1070
     1
1070
   280
1070
     1
1002
}
  0
DIMENSION
  5
7A3
330
2
100
AcDbEntity
  8
AM_5
100
AcDbDimension
  2
*D72
 10
4995.519761809159
 20
3085.661629932609
 30
0.0
 11
4920.519761809137
 21
3108.161629932609
 31
0.0
 70
    32
 71
     5
 42
15.00000000000436
  3
スタイル2
100
AcDbAlignedDimension
 13
4845.519761809115
 23
2824.506657257218
 33
0.0
 14
4995.519761809159
 24
2824.506657257219
 34
0.0
100
AcDbRotatedDimension
1001
ACAD
1000
DSTYLE
1002
{
1070
   144
1040
0.1
1070
   271
1070
     1
1070
   272
1070
     1
1002
}
  0
DIMENSION
  5
7C6
330
2
100
AcDbEntity
  8
AM_5
100
AcDbDimension
  2
*D73
 10
4995.519761809159
 20
3173.161629932609
 30
0.0
 11
4895.519761809158
 21
3195.661629932609
 31
0.0
 70
    32
 71
     5
 42
20.00000000000018
  3
スタイル2
100
AcDbAlignedDimension
 13
4795.519761809157
 23
2819.553833392007
 33
0.0
 14
4995.519761809159
 24
2824.506657257219
 34
0.0
100
AcDbRotatedDimension
1001
ACAD
1000
DSTYLE
1002
{
1070
   144
1040
0.1
1070
   271
1070
     1
1070
   272
1070
     1
1002
}
  0
DIMENSION
  5
80F
330
2
100
AcDbEntity
  8
AM_5
100
AcDbDimension
  2
*D74
 10
4572.621872740874
 20
2819.553833392006
 30
0.0
 11
4550.121872740873
 21
2742.485305473225
 31
0.0
 70
    32
 71
     5
 42
0.495282386521285
  3
スタイル2
100
AcDbAlignedDimension
 13
4845.519761809139
 23
2824.506657257219
 33
0.0
 14
4795.519761809157
 24
2819.553833392006
 34
0.0
 50
90.0
100
AcDbRotatedDimension
1001
ACAD
1000
DSTYLE
1002
{
1070
   144
1040
0.1
1070
   271
1070
     1
1070
   272
1070
     1
1002
}
  0
LINE
  5
8B7
330
2
100
AcDbEntity
  8
AM_6
100
AcDbLine
 10
4547.666472172568
 20
2358.57785770854
 30
0.0
 11
5211.859158972351
 21
2358.57785770854
 31
0.0
  0
MTEXT
  5
8B8
330
2
100
AcDbEntity
  8
AM_6
100
AcDbMText
 10
4881.469511587713
 20
2392.29271770185
 30
0.0
 40
45.0
 41
0.0
 71
     5
 72
     5
  1
Description of "a" S=1/1
  7
スタイル１
 73
     1
 44
1.0
  0
LINE
  5
8BB
330
2
100
AcDbEntity
  8
AM_5
 62
     2
100
AcDbLine
 10
5498.616689137005
 20
3870.663083842016
 30
0.0
 11
5332.408191124673
 21
4252.101148993399
 31
0.0
  0
DIMENSION
  5
8BE
330
2
100
AcDbEntity
  8
AM_5
100
AcDbDimension
  2
*D75
 10
5611.313859358234
 20
1331.15143219817
 30
0.0
 11
5588.813859358235
 21
1406.151432198171
 31
0.0
 70
    32
 71
     5
 42
30.0
  3
スタイル2
100
AcDbAlignedDimension
 13
5445.641319363133
 23
1481.15143219817
 33
0.0
 14
5445.641319363133
 24
1331.15143219817
 34
0.0
 50
90.0
100
AcDbRotatedDimension
1001
ACAD
1000
DSTYLE
1002
{
1070
   144
1040
0.2
1002
}
  0
DIMENSION
  5
8EA
330
2
100
AcDbEntity
  8
AM_5
100
AcDbDimension
  2
*D76
 10
7644.581080980848
 20
1331.15143219817
 30
0.0
 11
7622.081080980847
 21
1406.151432198171
 31
0.0
 70
    32
 71
     5
 42
30.0
  3
スタイル2
100
AcDbAlignedDimension
 13
7419.472017177986
 23
1481.15143219817
 33
0.0
 14
7419.472017177986
 24
1331.15143219817
 34
0.0
 50
90.0
100
AcDbRotatedDimension
1001
ACAD
1000
DSTYLE
1002
{
1070
   144
1040
0.2
1002
}
  0
ENDSEC
  0
SECTION
  2
OBJECTS
  0
DICTIONARY
  5
7
330
0
100
AcDbDictionary
281
     1
  3
ACAD_GROUP
350
27
  3
ACAD_LAYOUT
350
B
  3
ACAD_MLINESTYLE
350
28
  3
ACAD_PLOTSETTINGS
350
29
  3
ACAD_PLOTSTYLENAME
350
6
  3
AcadDim
350
789
  3
AcDbVariableDictionary
350
651
  0
DICTIONARY
  5
27
102
{ACAD_REACTORS
330
7
102
}
330
7
100
AcDbDictionary
281
     1
  0
DICTIONARY
  5
B
102
{ACAD_REACTORS
330
7
102
}
330
7
100
AcDbDictionary
281
     1
  3
Model
350
A
  3
ﾚｲｱｳﾄ1
350
F
  0
DICTIONARY
  5
28
102
{ACAD_REACTORS
330
7
102
}
330
7
100
AcDbDictionary
281
     1
  3
Standard
350
2C
  0
DICTIONARY
  5
29
102
{ACAD_REACTORS
330
7
102
}
330
7
100
AcDbDictionary
281
     1
  0
ACDBDICTIONARYWDFLT
  5
6
102
{ACAD_REACTORS
330
7
102
}
330
7
100
AcDbDictionary
281
     1
  3
Normal
350
5
100
AcDbDictionaryWithDefault
340
5
  0
XRECORD
  5
789
102
{ACAD_REACTORS
330
7
102
}
330
7
100
AcDbXrecord
280
     1
 90
   990106
  3

 60
     0
 61
     0
 62
     4
 63
     4
 64
     1
 65
     0
 66
     0
 67
     3
 68
     1
 69
     0
 70
     0
 71
     0
 72
     0
 40
0.0
170
     2
340
78B
  0
DICTIONARY
  5
651
102
{ACAD_REACTORS
330
7
102
}
330
7
100
AcDbDictionary
281
     1
  3
DIMASSOC
350
653
  3
HIDETEXT
350
652
  0
LAYOUT
  5
A
102
{ACAD_REACTORS
330
B
102
}
330
B
100
AcDbPlotSettings
  1

  2
HP DesignJet 700 (E (2000i).pc3
  4
User271
  6

 40
4.995333194732666
 41
16.97562789916992
 42
4.99530029296875
 43
16.97564697265625
 44
593.97900390625
 45
840.9093017578125
 46
0.0
 47
0.0
 48
2385.578030635533
 49
2639.31725467967
140
2581.758308107568
141
2750.965633398129
142
1.0
143
10.0
 70
 11936
 72
     1
 73
     1
 74
     2
  7
monochrome.ctb
 75
     0
147
0.1
148
0.0
149
0.0
100
AcDbLayout
  1
Model
 70
     1
 71
     0
 10
0.0
 20
0.0
 11
12.0
 21
9.0
 12
0.0
 22
0.0
 32
0.0
 14
0.0
 24
0.0
 34
0.0
 15
0.0
 25
0.0
 35
0.0
146
0.0
 13
0.0
 23
0.0
 33
0.0
 16
1.0
 26
0.0
 36
0.0
 17
0.0
 27
1.0
 37
0.0
 76
     0
330
2
  0
LAYOUT
  5
F
102
{ACAD_REACTORS
330
B
102
}
330
B
100
AcDbPlotSettings
  1

  2
EPSON VP-1000
  4

  6

 40
0.0
 41
0.0
 42
0.0
 43
0.0
 44
0.0
 45
0.0
 46
0.0
 47
0.0
 48
0.0
 49
0.0
140
0.0
141
0.0
142
1.0
143
1.0
 70
   688
 72
     0
 73
     0
 74
     5
  7
monochrome.ctb
 75
    16
147
1.0
148
0.0
149
0.0
100
AcDbLayout
  1
ﾚｲｱｳﾄ1
 70
     1
 71
     1
 10
0.0
 20
0.0
 11
420.0
 21
297.0
 12
0.0
 22
0.0
 32
0.0
 14
1.000000000000000E+20
 24
1.000000000000000E+20
 34
1.000000000000000E+20
 15
-1.000000000000000E+20
 25
-1.000000000000000E+20
 35
-1.000000000000000E+20
146
0.0
 13
0.0
 23
0.0
 33
0.0
 16
1.0
 26
0.0
 36
0.0
 17
0.0
 27
1.0
 37
0.0
 76
     0
330
C
  0
MLINESTYLE
  5
2C
102
{ACAD_REACTORS
330
28
102
}
330
28
100
AcDbMlineStyle
  2
STANDARD
 70
     0
  3

 62
   256
 51
90.0
 52
90.0
 71
     2
 49
0.5
 62
   256
  6
BYLAYER
 49
-0.5
 62
   256
  6
BYLAYER
  0
ACDBPLACEHOLDER
  5
5
102
{ACAD_REACTORS
330
6
102
}
330
6
  0
DICTIONARYVAR
  5
653
102
{ACAD_REACTORS
330
651
102
}
330
651
100
DictionaryVariables
280
     0
  1
1
  0
DICTIONARYVAR
  5
652
102
{ACAD_REACTORS
330
651
102
}
330
651
100
DictionaryVariables
280
     0
  1
1
  0
ENDSEC
  0
EOF
